General

Unique ID : 8965516190974113088879722071453497753 (0x6BEB2137DB00DE787F17752AF0E7999)
Complete name : /movies/t/The_Two_Popes_2019_1080p_WEB-DL_AC3_NTG_30NAMA.mkv
Format : Matroska
Format version : Version 4
File size : 6.55 GiB
Duration : 2 h 5 min
Overall bit rate mode : Variable
Overall bit rate : 7 445 kb/s
Encoded date : UTC 2019-12-20 08:04:24
Writing application : mkvmerge v21.0.0 ('Tardigrades Will Inherit The Earth') 64-bit
Writing library : libebml v1.3.5 + libmatroska v1.4.8

Video

ID : 1
Format : AVC
Format/Info : Advanced Video Codec
Format profile : Main@L4
Format settings : CABAC / 3 Ref Frames
Format settings, CABAC : Yes
Format settings, ReFrames : 3 frames
Codec ID : V_MPEG4/ISO/AVC
Duration : 2 h 5 min
Bit rate mode : Variable
Bit rate : 6 810 kb/s
Maximum bit rate : 10.2 Mb/s
Width : 1 920 pixels
Height : 1 080 pixels
Display aspect ratio : 16:9
Frame rate mode : Constant
Frame rate : 24.000 FPS
Color space : YUV
Chroma subsampling : 4:2:0
Bit depth : 8 bits
Scan type : Progressive
Bits/(Pixel*Frame) : 0.137
Stream size : 5.87 GiB (90%)
Writing library : x264 core 148 r2715 7e75228
Encoding settings : cabac=1 / ref=3 / deblock=1:0:0 / analyse=0x1:0x111 / me=umh / subme=10 / psy=1 / psy_rd=1.00:0.00 / mixed_ref=1 / me_range=24 / chroma_me=1 / trellis=2 / 8x8dct=0 / cqm=0 / deadzone=21,11 / fast_pskip=1 / chroma_qp_offset=-2 / threads=6 / lookahead_threads=1 / sliced_threads=0 / nr=0 / decimate=1 / interlaced=0 / bluray_compat=0 / stitchable=1 / constrained_intra=0 / bframes=2 / b_pyramid=0 / b_adapt=2 / b_bias=0 / direct=3 / weightb=1 / open_gop=0 / weightp=2 / keyint=250 / keyint_min=24 / scenecut=0 / intra_refresh=0 / rc_lookahead=48 / rc=2pass / mbtree=1 / bitrate=6810 / ratetol=1.0 / qcomp=0.50 / qpmin=6 / qpmax=51 / qpstep=4 / cplxblur=20.0 / qblur=0.5 / vbv_maxrate=10215 / vbv_bufsize=13620 / nal_hrd=vbr / filler=0 / ip_ratio=1.40 / aq=1:1.00
Default : Yes
Forced : No

Audio

ID : 2
Format : E-AC-3 JOC
Format/Info : Enhanced AC-3 with Joint Object Coding
Commercial name : Dolby Digital Plus with Dolby Atmos
Codec ID : A_EAC3
Duration : 2 h 5 min
Bit rate mode : Constant
Bit rate : 768 kb/s
Channel(s) : 6 channels
Channel layout : L R C LFE Ls Rs
Sampling rate : 48.0 kHz
Frame rate : 31.250 FPS (1536 SPF)
Compression mode : Lossy
Stream size : 692 MiB (10%)
Title : English
Language : English
Service kind : Complete Main
Default : Yes
Forced : No
Complexity index : 16
Number of dynamic objects : 15
Bed channel count : 1 channel
Bed channel configuration : LFE

Text #1

ID : 3
Format : UTF-8
Codec ID : S_TEXT/UTF8
Codec ID/Info : UTF-8 Plain Text
Duration : 2 h 0 min
Bit rate : 14 b/s
Count of elements : 496
Stream size : 12.9 KiB (0%)
Title : Forced
Language : English
Default : Yes
Forced : Yes

Text #2

ID : 4
Format : UTF-8
Codec ID : S_TEXT/UTF8
Codec ID/Info : UTF-8 Plain Text
Duration : 2 h 1 min
Bit rate : 64 b/s
Count of elements : 1913
Stream size : 58.0 KiB (0%)
Language : English
Default : No
Forced : No

Text #3

ID : 5
Format : UTF-8
Codec ID : S_TEXT/UTF8
Codec ID/Info : UTF-8 Plain Text
Duration : 2 h 5 min
Bit rate : 81 b/s
Count of elements : 2273
Stream size : 74.3 KiB (0%)
Title : SDH
Language : English
Default : No
Forced : No

Text #4

ID : 6
Format : UTF-8
Codec ID : S_TEXT/UTF8
Codec ID/Info : UTF-8 Plain Text
Duration : 2 h 4 min
Bit rate : 92 b/s
Count of elements : 1807
Stream size : 84.9 KiB (0%)
Language : Arabic
Default : No
Forced : No

Text #5

ID : 7
Format : UTF-8
Codec ID : S_TEXT/UTF8
Codec ID/Info : UTF-8 Plain Text
Duration : 2 h 4 min
Bit rate : 55 b/s
Count of elements : 1686
Stream size : 51.2 KiB (0%)
Language : Czech
Default : No
Forced : No

Text #6

ID : 8
Format : UTF-8
Codec ID : S_TEXT/UTF8
Codec ID/Info : UTF-8 Plain Text
Duration : 2 h 4 min
Bit rate : 54 b/s
Count of elements : 1771
Stream size : 50.2 KiB (0%)
Language : Danish
Default : No
Forced : No

Text #7

ID : 9
Format : UTF-8
Codec ID : S_TEXT/UTF8
Codec ID/Info : UTF-8 Plain Text
Duration : 2 h 4 min
Bit rate : 57 b/s
Count of elements : 1775
Stream size : 52.3 KiB (0%)
Language : German
Default : No
Forced : No

Text #8

ID : 10
Format : UTF-8
Codec ID : S_TEXT/UTF8
Codec ID/Info : UTF-8 Plain Text
Duration : 2 h 4 min
Bit rate : 94 b/s
Count of elements : 1775
Stream size : 86.1 KiB (0%)
Language : Greek
Default : No
Forced : No

Text #9

ID : 11
Format : UTF-8
Codec ID : S_TEXT/UTF8
Codec ID/Info : UTF-8 Plain Text
Duration : 2 h 4 min
Bit rate : 46 b/s
Count of elements : 1401
Stream size : 42.7 KiB (0%)
Language : Spanish
Default : No
Forced : No

Text #10

ID : 12
Format : UTF-8
Codec ID : S_TEXT/UTF8
Codec ID/Info : UTF-8 Plain Text
Duration : 2 h 4 min
Bit rate : 46 b/s
Count of elements : 1398
Stream size : 42.8 KiB (0%)
Title : European
Language : Spanish
Default : No
Forced : No

Text #11

ID : 13
Format : UTF-8
Codec ID : S_TEXT/UTF8
Codec ID/Info : UTF-8 Plain Text
Duration : 2 h 4 min
Bit rate : 53 b/s
Count of elements : 1779
Stream size : 48.9 KiB (0%)
Language : Finnish
Default : No
Forced : No

Text #12

ID : 14
Format : UTF-8
Codec ID : S_TEXT/UTF8
Codec ID/Info : UTF-8 Plain Text
Duration : 2 h 4 min
Bit rate : 59 b/s
Count of elements : 1776
Stream size : 54.5 KiB (0%)
Language : French
Default : No
Forced : No

Text #13

ID : 15
Format : UTF-8
Codec ID : S_TEXT/UTF8
Codec ID/Info : UTF-8 Plain Text
Duration : 2 h 4 min
Bit rate : 85 b/s
Count of elements : 1793
Stream size : 78.7 KiB (0%)
Language : Hebrew
Default : No
Forced : No

Text #14

ID : 16
Format : UTF-8
Codec ID : S_TEXT/UTF8
Codec ID/Info : UTF-8 Plain Text
Duration : 2 h 4 min
Bit rate : 55 b/s
Count of elements : 1775
Stream size : 51.1 KiB (0%)
Language : Hungarian
Default : No
Forced : No

Text #15

ID : 17
Format : UTF-8
Codec ID : S_TEXT/UTF8
Codec ID/Info : UTF-8 Plain Text
Duration : 2 h 4 min
Bit rate : 57 b/s
Count of elements : 1760
Stream size : 53.1 KiB (0%)
Language : Indonesian
Default : No
Forced : No

Text #16

ID : 18
Format : UTF-8
Codec ID : S_TEXT/UTF8
Codec ID/Info : UTF-8 Plain Text
Duration : 2 h 4 min
Bit rate : 55 b/s
Count of elements : 1681
Stream size : 50.7 KiB (0%)
Language : Italian
Default : No
Forced : No

Text #17

ID : 19
Format : UTF-8
Codec ID : S_TEXT/UTF8
Codec ID/Info : UTF-8 Plain Text
Duration : 2 h 4 min
Bit rate : 54 b/s
Count of elements : 1503
Stream size : 50.2 KiB (0%)
Language : Japanese
Default : No
Forced : No

Text #18

ID : 20
Format : UTF-8
Codec ID : S_TEXT/UTF8
Codec ID/Info : UTF-8 Plain Text
Duration : 2 h 4 min
Bit rate : 78 b/s
Count of elements : 1791
Stream size : 71.7 KiB (0%)
Language : Korean
Default : No
Forced : No

Text #19

ID : 21
Format : UTF-8
Codec ID : S_TEXT/UTF8
Codec ID/Info : UTF-8 Plain Text
Duration : 2 h 4 min
Bit rate : 55 b/s
Count of elements : 1771
Stream size : 50.8 KiB (0%)
Language : Norwegian Bokmal
Default : No
Forced : No

Text #20

ID : 22
Format : UTF-8
Codec ID : S_TEXT/UTF8
Codec ID/Info : UTF-8 Plain Text
Duration : 2 h 4 min
Bit rate : 53 b/s
Count of elements : 1728
Stream size : 49.1 KiB (0%)
Language : Dutch
Default : No
Forced : No

Text #21

ID : 23
Format : UTF-8
Codec ID : S_TEXT/UTF8
Codec ID/Info : UTF-8 Plain Text
Duration : 2 h 4 min
Bit rate : 54 b/s
Count of elements : 1752
Stream size : 50.0 KiB (0%)
Language : Polish
Default : No
Forced : No

Text #22

ID : 24
Format : UTF-8
Codec ID : S_TEXT/UTF8
Codec ID/Info : UTF-8 Plain Text
Duration : 2 h 4 min
Bit rate : 57 b/s
Count of elements : 1778
Stream size : 52.2 KiB (0%)
Language : Portuguese
Default : No
Forced : No

Text #23

ID : 25
Format : UTF-8
Codec ID : S_TEXT/UTF8
Codec ID/Info : UTF-8 Plain Text
Duration : 2 h 4 min
Bit rate : 53 b/s
Count of elements : 1476
Stream size : 48.9 KiB (0%)
Title : Brazilian
Language : Portuguese
Default : No
Forced : No

Text #24

ID : 26
Format : UTF-8
Codec ID : S_TEXT/UTF8
Codec ID/Info : UTF-8 Plain Text
Duration : 2 h 5 min
Bit rate : 75 b/s
Count of elements : 2335
Stream size : 69.2 KiB (0%)
Title : Brazilian SDH
Language : Portuguese
Default : No
Forced : No

Text #25

ID : 27
Format : UTF-8
Codec ID : S_TEXT/UTF8
Codec ID/Info : UTF-8 Plain Text
Duration : 2 h 4 min
Bit rate : 66 b/s
Count of elements : 1810
Stream size : 61.3 KiB (0%)
Language : Romanian
Default : No
Forced : No

Text #26

ID : 28
Format : UTF-8
Codec ID : S_TEXT/UTF8
Codec ID/Info : UTF-8 Plain Text
Duration : 2 h 4 min
Bit rate : 91 b/s
Count of elements : 1711
Stream size : 84.0 KiB (0%)
Language : Russian
Default : No
Forced : No

Text #27

ID : 29
Format : UTF-8
Codec ID : S_TEXT/UTF8
Codec ID/Info : UTF-8 Plain Text
Duration : 2 h 4 min
Bit rate : 55 b/s
Count of elements : 1775
Stream size : 50.7 KiB (0%)
Language : Swedish
Default : No
Forced : No

Text #28

ID : 30
Format : UTF-8
Codec ID : S_TEXT/UTF8
Codec ID/Info : UTF-8 Plain Text
Duration : 2 h 4 min
Bit rate : 149 b/s
Count of elements : 1805
Stream size : 137 KiB (0%)
Language : Thai
Default : No
Forced : No

Text #29

ID : 31
Format : UTF-8
Codec ID : S_TEXT/UTF8
Codec ID/Info : UTF-8 Plain Text
Duration : 2 h 4 min
Bit rate : 58 b/s
Count of elements : 1781
Stream size : 53.3 KiB (0%)
Language : Turkish
Default : No
Forced : No

Text #30

ID : 32
Format : UTF-8
Codec ID : S_TEXT/UTF8
Codec ID/Info : UTF-8 Plain Text
Duration : 2 h 4 min
Bit rate : 82 b/s
Count of elements : 1741
Stream size : 76.0 KiB (0%)
Language : Vietnamese
Default : No
Forced : No

Text #31

ID : 33
Format : UTF-8
Codec ID : S_TEXT/UTF8
Codec ID/Info : UTF-8 Plain Text
Duration : 2 h 4 min
Bit rate : 63 b/s
Count of elements : 1788
Stream size : 58.0 KiB (0%)
Title : Simplified
Language : Chinese
Default : No
Forced : No

Text #32

ID : 34
Format : UTF-8
Codec ID : S_TEXT/UTF8
Codec ID/Info : UTF-8 Plain Text
Duration : 2 h 4 min
Bit rate : 55 b/s
Count of elements : 1807
Stream size : 51.1 KiB (0%)
Title : Traditional
Language : Chinese
Default : No
Forced : No