General

Unique ID : 180047950832561606616853967701347876415 (0x8773F957A1A3B80A0C612DD8A8DF3E3F)
Complete name : /movies/t/The_Dark_Knight_Rises_2012_IMAX_10bit_1080p_x265_BrRip_MkvCage_30NAMA.mkv
Format : Matroska
Format version : Version 4
File size : 4.02 GiB
Duration : 2 h 44 min
Overall bit rate : 3 496 kb/s
Movie name : The.Dark.Knight.Rises.2012.IMAX.1080p.BluRay.10bit.HEVC.6CH.MkvCage.ws
Encoded date : UTC 2019-02-11 07:27:15
Writing application : mkvmerge v30.1.0 ('Forever And More') 64-bit
Writing library : libebml v1.3.6 + libmatroska v1.4.9
Cover : Yes
Attachments : cover.jpg

Video

ID : 1
Format : HEVC
Format/Info : High Efficiency Video Coding
Format profile : Main 10@L4@Main
Codec ID : V_MPEGH/ISO/HEVC
Duration : 2 h 44 min
Bit rate : 3 301 kb/s
Width : 1 920 pixels
Height : 1 080 pixels
Display aspect ratio : 16:9
Frame rate mode : Constant
Frame rate : 23.976 (24000/1001) FPS
Color space : YUV
Chroma subsampling : 4:2:0
Bit depth : 10 bits
Bits/(Pixel*Frame) : 0.066
Stream size : 3.79 GiB (94%)
Default : Yes
Forced : No

Audio

ID : 2
Format : AAC LC SBR
Format/Info : Advanced Audio Codec Low Complexity with Spectral Band Replication
Commercial name : HE-AAC
Format settings : Explicit
Codec ID : A_AAC-2
Duration : 2 h 44 min
Bit rate : 192 kb/s
Channel(s) : 6 channels
Channel layout : C L R Ls Rs LFE
Sampling rate : 48.0 kHz
Frame rate : 23.438 FPS (2048 SPF)
Compression mode : Lossy
Delay relative to video : 43 ms
Stream size : 226 MiB (5%)
Default : No
Forced : No

Text #1

ID : 3
Format : UTF-8
Codec ID : S_TEXT/UTF8
Codec ID/Info : UTF-8 Plain Text
Duration : 2 h 34 min
Bit rate : 62 b/s
Count of elements : 1911
Stream size : 70.1 KiB (0%)
Title : HI
Language : English
Default : Yes
Forced : No

Text #2

ID : 4
Format : UTF-8
Codec ID : S_TEXT/UTF8
Codec ID/Info : UTF-8 Plain Text
Duration : 2 h 34 min
Bit rate : 58 b/s
Count of elements : 1778
Stream size : 65.8 KiB (0%)
Language : English
Default : No
Forced : No

Menu

00:00:00.000 : en:Chapter 01
00:09:02.792 : en:Chapter 02
00:19:08.438 : en:Chapter 03
00:30:15.522 : en:Chapter 04
00:41:08.507 : en:Chapter 05
00:51:09.399 : en:Chapter 06
01:00:29.292 : en:Chapter 07
01:10:03.991 : en:Chapter 08
01:20:13.433 : en:Chapter 09
01:31:00.538 : en:Chapter 10
01:39:24.208 : en:Chapter 11
01:48:58.448 : en:Chapter 12
02:00:21.547 : en:Chapter 13
02:10:47.631 : en:Chapter 14
02:19:12.594 : en:Chapter 15
02:30:14.505 : en:Chapter 16
02:36:50.442 : en:Chapter 17