General

Unique ID : 109516011355007712503992464193735738177 (0x5264043DA8C79D300FF61C3BF965C341)
Complete name : /movies/t/The_Dark_Knight_Rises_2012_10bit_1080p_x265_BluRay_Tigole_30NAMA.mkv
Format : Matroska
Format version : Version 4
File size : 5.61 GiB
Duration : 2 h 44 min
Overall bit rate : 4 879 kb/s
Movie name : The Dark Knight Rises
Encoded date : UTC 2018-09-28 23:30:19
Writing application : mkvmerge v26.0.0 ('In The Game') 64-bit
Writing library : libebml v1.3.6 + libmatroska v1.4.9

Video

ID : 1
Format : HEVC
Format/Info : High Efficiency Video Coding
Format profile : Main 10@L4@Main
Codec ID : V_MPEGH/ISO/HEVC
Duration : 2 h 44 min
Bit rate : 4 339 kb/s
Width : 1 920 pixels
Height : 1 080 pixels
Display aspect ratio : 16:9
Frame rate mode : Constant
Frame rate : 23.976 (24000/1001) FPS
Color space : YUV
Chroma subsampling : 4:2:0
Bit depth : 10 bits
Bits/(Pixel*Frame) : 0.087
Stream size : 4.99 GiB (89%)
Writing library : x265 2.8+70-33a782b23f2c:[Windows][GCC 8.2.0][64 bit] 10bit
Encoding settings : cpuid=1111039 / frame-threads=3 / numa-pools=8 / wpp / no-pmode / no-pme / no-psnr / no-ssim / log-level=2 / input-csp=1 / input-res=1920x1080 / interlace=0 / total-frames=236713 / level-idc=0 / high-tier=1 / uhd-bd=0 / ref=4 / no-allow-non-conformance / no-repeat-headers / annexb / no-aud / no-hrd / info / hash=0 / no-temporal-layers / open-gop / min-keyint=23 / keyint=250 / gop-lookahead=0 / bframes=4 / b-adapt=2 / b-pyramid / bframe-bias=0 / rc-lookahead=25 / lookahead-slices=4 / scenecut=40 / radl=0 / no-intra-refresh / ctu=64 / min-cu-size=8 / rect / no-amp / max-tu-size=32 / tu-inter-depth=1 / tu-intra-depth=1 / limit-tu=0 / rdoq-level=2 / dynamic-rd=0.00 / no-ssim-rd / signhide / no-tskip / nr-intra=0 / nr-inter=0 / no-constrained-intra / strong-intra-smoothing / max-merge=3 / limit-refs=3 / limit-modes / me=3 / subme=3 / merange=57 / temporal-mvp / weightp / no-weightb / no-analyze-src-pics / deblock=0:0 / sao / no-sao-non-deblock / rd=4 / no-early-skip / rskip / no-fast-intra / no-tskip-fast / no-cu-lossless / no-b-intra / no-splitrd-skip / rdpenalty=0 / psy-rd=2.00 / psy-rdoq=1.00 / no-rd-refine / no-lossless / cbqpoffs=0 / crqpoffs=0 / rc=abr / bitrate=4338 / qcomp=0.60 / qpstep=4 / stats-write=0 / stats-read=2 / cplxblur=20.0 / qblur=0.5 / ipratio=1.40 / pbratio=1.30 / aq-mode=3 / aq-strength=1.00 / cutree / zone-count=0 / no-strict-cbr / qg-size=32 / no-rc-grain / qpmax=69 / qpmin=0 / no-const-vbv / sar=0 / overscan=0 / videoformat=5 / range=0 / colorprim=2 / transfer=2 / colormatrix=2 / chromaloc=0 / display-window=0 / max-cll=0,0 / min-luma=0 / max-luma=1023 / log2-max-poc-lsb=8 / vui-timing-info / vui-hrd-info / slices=1 / no-opt-qp-pps / no-opt-ref-list-length-pps / multi-pass-opt-rps / scenecut-bias=0.05 / no-opt-cu-delta-qp / aq-motion / no-hdr / no-hdr-opt / no-dhdr10-opt / no-idr-recovery-sei / analysis-reuse-level=5 / scale-factor=0 / refine-intra=0 / refine-inter=0 / refine-mv=0 / no-limit-sao / ctu-info=0 / no-lowpass-dct / refine-mv-type=0 / copy-pic=1 / max-ausize-factor=1.0 / no-dynamic-refine / no-single-sei
Default : Yes
Forced : No

Audio

ID : 2
Format : AAC LC
Format/Info : Advanced Audio Codec Low Complexity
Codec ID : A_AAC-2
Duration : 2 h 44 min
Bit rate : 458 kb/s
Channel(s) : 6 channels
Channel layout : C L R Ls Rs LFE
Sampling rate : 48.0 kHz
Frame rate : 46.875 FPS (1024 SPF)
Compression mode : Lossy
Delay relative to video : 20 ms
Stream size : 539 MiB (9%)
Language : English
Default : Yes
Forced : No

Text #1

ID : 3
Format : VobSub
Muxing mode : zlib
Codec ID : S_VOBSUB
Codec ID/Info : Picture based subtitle format used on DVDs
Duration : 2 h 43 min
Bit rate : 10.3 kb/s
Count of elements : 1913
Stream size : 12.1 MiB (0%)
Language : English
Default : No
Forced : No

Text #2

ID : 4
Format : VobSub
Muxing mode : zlib
Codec ID : S_VOBSUB
Codec ID/Info : Picture based subtitle format used on DVDs
Duration : 2 h 43 min
Bit rate : 7 278 b/s
Count of elements : 1815
Stream size : 8.51 MiB (0%)
Language : Chinese
Default : No
Forced : No

Text #3

ID : 5
Format : VobSub
Muxing mode : zlib
Codec ID : S_VOBSUB
Codec ID/Info : Picture based subtitle format used on DVDs
Duration : 2 h 43 min
Bit rate : 8 451 b/s
Count of elements : 1494
Stream size : 9.88 MiB (0%)
Language : Danish
Default : No
Forced : No

Text #4

ID : 6
Format : VobSub
Muxing mode : zlib
Codec ID : S_VOBSUB
Codec ID/Info : Picture based subtitle format used on DVDs
Duration : 2 h 43 min
Bit rate : 8 573 b/s
Count of elements : 1640
Stream size : 10.0 MiB (0%)
Language : Dutch
Default : No
Forced : No

Text #5

ID : 7
Format : VobSub
Muxing mode : zlib
Codec ID : S_VOBSUB
Codec ID/Info : Picture based subtitle format used on DVDs
Duration : 2 h 43 min
Bit rate : 8 178 b/s
Count of elements : 1554
Stream size : 9.56 MiB (0%)
Language : Finnish
Default : No
Forced : No

Text #6

ID : 8
Format : VobSub
Muxing mode : zlib
Codec ID : S_VOBSUB
Codec ID/Info : Picture based subtitle format used on DVDs
Duration : 2 h 43 min
Bit rate : 8 101 b/s
Count of elements : 2002
Stream size : 9.47 MiB (0%)
Language : French
Default : No
Forced : No

Text #7

ID : 9
Format : VobSub
Muxing mode : zlib
Codec ID : S_VOBSUB
Codec ID/Info : Picture based subtitle format used on DVDs
Duration : 2 h 43 min
Bit rate : 12.1 kb/s
Count of elements : 1964
Stream size : 14.2 MiB (0%)
Language : German
Default : No
Forced : No

Text #8

ID : 10
Format : VobSub
Muxing mode : zlib
Codec ID : S_VOBSUB
Codec ID/Info : Picture based subtitle format used on DVDs
Duration : 2 h 43 min
Bit rate : 8 836 b/s
Count of elements : 1878
Stream size : 10.3 MiB (0%)
Language : Icelandic
Default : No
Forced : No

Text #9

ID : 11
Format : VobSub
Muxing mode : zlib
Codec ID : S_VOBSUB
Codec ID/Info : Picture based subtitle format used on DVDs
Duration : 2 h 43 min
Bit rate : 10.8 kb/s
Count of elements : 1797
Stream size : 12.6 MiB (0%)
Language : Indonesian
Default : No
Forced : No

Text #10

ID : 12
Format : VobSub
Muxing mode : zlib
Codec ID : S_VOBSUB
Codec ID/Info : Picture based subtitle format used on DVDs
Duration : 2 h 43 min
Bit rate : 10.4 kb/s
Count of elements : 1930
Stream size : 12.2 MiB (0%)
Language : Italian
Default : No
Forced : No

Text #11

ID : 13
Format : VobSub
Muxing mode : zlib
Codec ID : S_VOBSUB
Codec ID/Info : Picture based subtitle format used on DVDs
Duration : 2 h 43 min
Bit rate : 6 562 b/s
Count of elements : 1777
Stream size : 7.67 MiB (0%)
Language : Korean
Default : No
Forced : No

Text #12

ID : 14
Format : VobSub
Muxing mode : zlib
Codec ID : S_VOBSUB
Codec ID/Info : Picture based subtitle format used on DVDs
Duration : 2 h 43 min
Bit rate : 8 363 b/s
Count of elements : 1483
Stream size : 9.78 MiB (0%)
Language : Norwegian Bokmal
Default : No
Forced : No

Text #13

ID : 15
Format : VobSub
Muxing mode : zlib
Codec ID : S_VOBSUB
Codec ID/Info : Picture based subtitle format used on DVDs
Duration : 2 h 43 min
Bit rate : 9 173 b/s
Count of elements : 1823
Stream size : 10.7 MiB (0%)
Language : Spanish
Default : No
Forced : No

Text #14

ID : 16
Format : VobSub
Muxing mode : zlib
Codec ID : S_VOBSUB
Codec ID/Info : Picture based subtitle format used on DVDs
Duration : 2 h 43 min
Bit rate : 8 521 b/s
Count of elements : 1493
Stream size : 9.97 MiB (0%)
Language : Swedish
Default : No
Forced : No

Text #15

ID : 17
Format : VobSub
Muxing mode : zlib
Codec ID : S_VOBSUB
Codec ID/Info : Picture based subtitle format used on DVDs
Duration : 2 h 43 min
Bit rate : 8 088 b/s
Count of elements : 1801
Stream size : 9.46 MiB (0%)
Language : Thai
Default : No
Forced : No

Menu

00:00:00.000 : en:Chapter 01
00:09:02.792 : en:Chapter 02
00:19:08.438 : en:Chapter 03
00:30:15.522 : en:Chapter 04
00:41:08.507 : en:Chapter 05
00:51:09.399 : en:Chapter 06
01:00:29.292 : en:Chapter 07
01:10:03.991 : en:Chapter 08
01:20:13.433 : en:Chapter 09
01:31:00.538 : en:Chapter 10
01:39:24.208 : en:Chapter 11
01:48:58.448 : en:Chapter 12
02:00:21.547 : en:Chapter 13
02:10:47.631 : en:Chapter 14
02:19:12.594 : en:Chapter 15
02:30:14.505 : en:Chapter 16
02:36:50.442 : en:Chapter 17