General

Unique ID : 301100821670013907267967720303677114834 (0xE285E8ABED260D9CB5F7DF5821C789D2)
Complete name : /movies/r/Rocketman_2019_720p_BrRip_MkvCage_30NAMA.mkv
Format : Matroska
Format version : Version 4
File size : 1.10 GiB
Duration : 2 h 1 min
Overall bit rate : 1 304 kb/s
Movie name : Rocketman.2019.720p.BRRip.x264-MkvCage.com
Encoded date : UTC 2019-08-16 14:19:03
Writing application : mkvmerge v33.1.0 ('Primrose') 64-bit
Writing library : libebml v1.3.7 + libmatroska v1.5.0

Video

ID : 1
Format : AVC
Format/Info : Advanced Video Codec
Format profile : High@L4.1
Format settings : CABAC / 12 Ref Frames
Format settings, CABAC : Yes
Format settings, ReFrames : 12 frames
Codec ID : V_MPEG4/ISO/AVC
Duration : 2 h 1 min
Bit rate : 1 202 kb/s
Width : 1 280 pixels
Height : 538 pixels
Display aspect ratio : 2.40:1
Frame rate mode : Constant
Frame rate : 23.976 (24000/1001) FPS
Color space : YUV
Chroma subsampling : 4:2:0
Bit depth : 8 bits
Scan type : Progressive
Bits/(Pixel*Frame) : 0.073
Stream size : 1.02 GiB (92%)
Writing library : x264 core 157 r2935 545de2f
Encoding settings : cabac=1 / ref=12 / deblock=1:-1:-1 / analyse=0x3:0x133 / me=umh / subme=10 / psy=1 / psy_rd=1.00:0.10 / mixed_ref=1 / me_range=24 / chroma_me=1 / trellis=2 / 8x8dct=1 / cqm=0 / deadzone=21,11 / fast_pskip=1 / chroma_qp_offset=-3 / threads=17 / lookahead_threads=2 / sliced_threads=0 / nr=0 / decimate=1 / interlaced=0 / bluray_compat=0 / constrained_intra=0 / bframes=8 / b_pyramid=2 / b_adapt=2 / b_bias=0 / direct=3 / weightb=1 / open_gop=0 / weightp=2 / keyint=250 / keyint_min=23 / scenecut=40 / intra_refresh=0 / rc_lookahead=60 / rc=2pass / mbtree=1 / bitrate=1202 / ratetol=1.0 / qcomp=0.60 / qpmin=0 / qpmax=69 / qpstep=4 / cplxblur=20.0 / qblur=0.5 / ip_ratio=1.40 / aq=1:1.00
Default : Yes
Forced : No

Audio

ID : 2
Format : AAC LC SBR
Format/Info : Advanced Audio Codec Low Complexity with Spectral Band Replication
Commercial name : HE-AAC
Format settings : Explicit
Codec ID : A_AAC-2
Duration : 2 h 1 min
Bit rate : 100.0 kb/s
Channel(s) : 2 channels
Channel layout : L R
Sampling rate : 48.0 kHz
Frame rate : 23.438 FPS (2048 SPF)
Compression mode : Lossy
Delay relative to video : 43 ms
Stream size : 86.7 MiB (8%)
Language : English
Default : Yes
Forced : No

Text #1

ID : 3
Format : UTF-8
Codec ID : S_TEXT/UTF8
Codec ID/Info : UTF-8 Plain Text
Duration : 1 h 59 min
Bit rate : 70 b/s
Count of elements : 1738
Stream size : 61.6 KiB (0%)
Title : HI
Language : English
Default : Yes
Forced : No

Text #2

ID : 4
Format : UTF-8
Codec ID : S_TEXT/UTF8
Codec ID/Info : UTF-8 Plain Text
Duration : 1 h 58 min
Bit rate : 66 b/s
Count of elements : 1603
Stream size : 57.8 KiB (0%)
Language : English
Default : No
Forced : No

Menu

00:00:00.000 : en:00:00:00.000
00:05:50.725 : en:00:05:50.725
00:11:20.805 : en:00:11:20.805
00:18:43.080 : en:00:18:43.080
00:22:39.858 : en:00:22:39.858
00:28:01.054 : en:00:28:01.054
00:34:21.393 : en:00:34:21.393
00:38:35.230 : en:00:38:35.230
00:42:52.445 : en:00:42:52.445
00:50:40.579 : en:00:50:40.579
00:57:30.906 : en:00:57:30.906
01:04:06.176 : en:01:04:06.176
01:09:28.915 : en:01:09:28.915
01:16:10.941 : en:01:16:10.941
01:24:44.079 : en:01:24:44.079
01:29:09.344 : en:01:29:09.344
01:35:22.383 : en:01:35:22.383
01:42:46.243 : en:01:42:46.243
01:51:11.832 : en:01:51:11.832
01:55:25.335 : en:01:55:25.335