General

Unique ID : 245475143201006493251762229331377000096 (0xB8ACCAFACBFEBCDF9E4C4CD85D480EA0)
Complete name : /movies/o/Once_Upon_a_Time_in_Hollywood_2019_720p_BluRay_SPARKS_30NAMA.mkv
Format : Matroska
Format version : Version 4
File size : 7.65 GiB
Duration : 2 h 41 min
Overall bit rate : 6 784 kb/s
Encoded date : UTC 2019-11-27 02:58:07
Writing application : mkvmerge v8.3.0 ('Over the Horizon') 64bit
Writing library : libebml v1.3.1 + libmatroska v1.4.2

Video

ID : 1
Format : AVC
Format/Info : Advanced Video Codec
Format profile : High@L4.1
Format settings : CABAC / 5 Ref Frames
Format settings, CABAC : Yes
Format settings, ReFrames : 5 frames
Codec ID : V_MPEG4/ISO/AVC
Duration : 2 h 41 min
Bit rate : 5 273 kb/s
Width : 1 280 pixels
Height : 536 pixels
Display aspect ratio : 2.40:1
Frame rate mode : Constant
Frame rate : 23.976 (24000/1001) FPS
Color space : YUV
Chroma subsampling : 4:2:0
Bit depth : 8 bits
Scan type : Progressive
Bits/(Pixel*Frame) : 0.321
Stream size : 5.95 GiB (78%)
Writing library : x264 core 158 r2988 7817004
Encoding settings : cabac=1 / ref=5 / deblock=1:-3:-3 / analyse=0x3:0x113 / me=umh / subme=8 / psy=1 / psy_rd=1.00:0.00 / mixed_ref=1 / me_range=16 / chroma_me=1 / trellis=1 / 8x8dct=1 / cqm=0 / deadzone=21,11 / fast_pskip=1 / chroma_qp_offset=-2 / threads=17 / lookahead_threads=2 / sliced_threads=0 / nr=0 / decimate=1 / interlaced=0 / bluray_compat=0 / constrained_intra=0 / bframes=3 / b_pyramid=2 / b_adapt=1 / b_bias=0 / direct=3 / weightb=1 / open_gop=0 / weightp=2 / keyint=250 / keyint_min=23 / scenecut=40 / intra_refresh=0 / rc_lookahead=50 / rc=2pass / mbtree=1 / bitrate=5273 / ratetol=1.0 / qcomp=0.60 / qpmin=0 / qpmax=69 / qpstep=4 / cplxblur=20.0 / qblur=0.5 / ip_ratio=1.40 / aq=1:1.00
Language : English
Default : Yes
Forced : No

Audio

ID : 2
Format : DTS
Format/Info : Digital Theater Systems
Codec ID : A_DTS
Duration : 2 h 41 min
Bit rate mode : Constant
Bit rate : 1 509 kb/s
Channel(s) : 6 channels
Channel layout : C L R Ls Rs LFE
Sampling rate : 48.0 kHz
Frame rate : 93.750 FPS (512 SPF)
Bit depth : 24 bits
Compression mode : Lossy
Stream size : 1.70 GiB (22%)
Language : English
Default : Yes
Forced : No

Menu

00:00:00.000 : en:00:00:00.000
00:04:49.414 : en:00:04:49.414
00:13:45.199 : en:00:13:45.199
00:18:29.150 : en:00:18:29.150
00:22:00.319 : en:00:22:00.319
00:25:59.349 : en:00:25:59.349
00:28:41.094 : en:00:28:41.094
00:33:45.106 : en:00:33:45.106
00:40:19.334 : en:00:40:19.334
00:49:59.455 : en:00:49:59.455
00:51:48.689 : en:00:51:48.689
00:59:52.255 : en:00:59:52.255
01:02:32.874 : en:01:02:32.874
01:04:28.615 : en:01:04:28.615
01:09:16.736 : en:01:09:16.736
01:17:40.781 : en:01:17:40.781
01:20:25.779 : en:01:20:25.779
01:26:28.433 : en:01:26:28.433
01:32:54.444 : en:01:32:54.444
01:39:58.492 : en:01:39:58.492
01:47:55.219 : en:01:47:55.219
01:53:00.232 : en:01:53:00.232
01:58:09.541 : en:01:58:09.541
02:06:23.993 : en:02:06:23.993
02:11:22.958 : en:02:11:22.958
02:15:50.100 : en:02:15:50.100
02:21:30.190 : en:02:21:30.190
02:29:50.732 : en:02:29:50.732
02:36:28.254 : en:02:36:28.254
02:38:51.230 : en:02:38:51.230