General

Unique ID : 268062186433845952138820193982096959811 (0xC9AAE630BB4C999248B95F8039B56943)
Complete name : /movies/o/Once_Upon_a_Time_in_Hollywood_2019_10bit_HDR_2160p_x265_BluRay_8CH_PSA_30NAMA.mkv
Format : Matroska
Format version : Version 4
File size : 2.63 GiB
Duration : 2 h 41 min
Overall bit rate : 2 335 kb/s
Movie name : PSArips.com | Once.Upon.a.Time.in.Hollywood.2019.2160p.10bit.HDR.BluRay.8CH.x265.HEVC-PSA
Encoded date : UTC 2019-12-01 10:17:06
Writing application : mkvmerge v40.0.0 ('Old Town Road + Pony') 64-bit
Writing library : libebml v1.3.9 + libmatroska v1.5.2

Video

ID : 1
Format : HEVC
Format/Info : High Efficiency Video Coding
Commercial name : HDR10
Format profile : Main 10@L5@Main
Codec ID : V_MPEGH/ISO/HEVC
Duration : 2 h 41 min
Bit rate : 2 086 kb/s
Width : 3 840 pixels
Height : 1 600 pixels
Display aspect ratio : 2.40:1
Frame rate mode : Constant
Frame rate : 23.976 (24000/1001) FPS
Color space : YUV
Chroma subsampling : 4:2:0
Bit depth : 10 bits
Bits/(Pixel*Frame) : 0.014
Stream size : 2.35 GiB (89%)
Default : Yes
Forced : No
Color range : Limited
Color primaries : BT.2020
Transfer characteristics : PQ
Matrix coefficients : BT.2020 non-constant
Mastering display color primaries : Display P3
Mastering display luminance : min: 0.0001 cd/m2, max: 1000 cd/m2
Maximum Content Light Level : 385 cd/m2
Maximum Frame-Average Light Level : 213 cd/m2

Audio

ID : 2
Format : AAC LC SBR
Format/Info : Advanced Audio Codec Low Complexity with Spectral Band Replication
Commercial name : HE-AAC
Format settings : Explicit
Codec ID : A_AAC-2
Duration : 2 h 41 min
Bit rate : 248 kb/s
Channel(s) : 8 channels
Channel layout : C L R Ls Rs Lb Rb LFE
Sampling rate : 48.0 kHz
Frame rate : 23.438 FPS (2048 SPF)
Compression mode : Lossy
Delay relative to video : 31 ms
Stream size : 286 MiB (11%)
Language : English
Default : Yes
Forced : No

Text #1

ID : 3
Format : UTF-8
Codec ID : S_TEXT/UTF8
Codec ID/Info : UTF-8 Plain Text
Duration : 2 h 40 min
Bit rate : 56 b/s
Count of elements : 1822
Stream size : 66.7 KiB (0%)
Language : English
Default : Yes
Forced : No

Text #2

ID : 4
Format : UTF-8
Codec ID : S_TEXT/UTF8
Codec ID/Info : UTF-8 Plain Text
Duration : 2 h 40 min
Bit rate : 60 b/s
Count of elements : 2057
Stream size : 71.8 KiB (0%)
Title : SDH
Language : English
Default : No
Forced : No