General

Unique ID : 242393477842099824617866750950649028496 (0xB65B49259A5EDFADEAB67274502EDF90)
Complete name : /movies/o/Once_Upon_a_Time_in_Hollywood_2019_10bit_HDR_1080p_x265_BluRay_UHD_AC3_DON_30NAMA.mkv
Format : Matroska
Format version : Version 4
File size : 24.4 GiB
Duration : 2 h 41 min
Overall bit rate : 21.6 Mb/s
Movie name : Once upon a time in... Hollywood 2019
Encoded date : UTC 2019-12-04 18:02:05
Writing application : mkvmerge v40.0.0.65 ('Old Town Road + Pony') 64-bit
Writing library : libebml v1.3.9 + libmatroska v1.5.2

Video

ID : 1
Format : HEVC
Format/Info : High Efficiency Video Coding
Commercial name : HDR10
Format profile : Main 10@L5.1@High
Codec ID : V_MPEGH/ISO/HEVC
Duration : 2 h 41 min
Bit rate : 20.1 Mb/s
Width : 1 920 pixels
Height : 800 pixels
Display aspect ratio : 2.40:1
Frame rate mode : Constant
Frame rate : 23.976 (24000/1001) FPS
Color space : YUV
Chroma subsampling : 4:2:0 (Type 2)
Bit depth : 10 bits
Bits/(Pixel*Frame) : 0.546
Stream size : 22.7 GiB (93%)
Title : Once upon a time in... Hollywood 2019
Writing library : x265 3.2+18-f0fe46ce379d:[Windows][GCC 9.2.1][64 bit] 10bit
Encoding settings : cpuid=1111039 / frame-threads=5 / numa-pools=44 / wpp / no-pmode / no-pme / no-psnr / no-ssim / log-level=2 / csv / csv-log-level=2 / input-csp=1 / input-res=1920x800 / interlace=0 / total-frames=0 / level-idc=51 / high-tier=1 / uhd-bd=0 / ref=6 / no-allow-non-conformance / repeat-headers / annexb / aud / hrd / info / hash=0 / no-temporal-layers / no-open-gop / min-keyint=23 / keyint=240 / gop-lookahead=0 / bframes=12 / b-adapt=2 / b-pyramid / bframe-bias=0 / rc-lookahead=60 / lookahead-slices=2 / scenecut=40 / hist-scenecut=0 / radl=0 / no-splice / no-intra-refresh / ctu=32 / min-cu-size=8 / rect / amp / max-tu-size=32 / tu-inter-depth=4 / tu-intra-depth=4 / limit-tu=4 / rdoq-level=2 / dynamic-rd=0.00 / no-ssim-rd / signhide / no-tskip / nr-intra=0 / nr-inter=0 / no-constrained-intra / strong-intra-smoothing / max-merge=3 / limit-refs=2 / limit-modes / me=3 / subme=7 / merange=57 / temporal-mvp / no-frame-dup / no-hme / weightp / weightb / no-analyze-src-pics / deblock=-3:-3 / no-sao / no-sao-non-deblock / rd=4 / selective-sao=0 / no-early-skip / no-rskip / no-fast-intra / no-tskip-fast / no-cu-lossless / b-intra / no-splitrd-skip / rdpenalty=0 / psy-rd=1.07 / psy-rdoq=1.00 / no-rd-refine / no-lossless / cbqpoffs=-2 / crqpoffs=-2 / rc=crf / crf=14.2 / qcomp=0.65 / qpstep=4 / stats-write=0 / stats-read=0 / vbv-maxrate=160000 / vbv-bufsize=160000 / vbv-init=0.9 / crf-max=0.0 / crf-min=0.0 / ipratio=1.30 / pbratio=1.15 / aq-mode=3 / aq-strength=0.85 / no-cutree / zone-count=0 / no-strict-cbr / qg-size=8 / no-rc-grain / qpmax=69 / qpmin=0 / no-const-vbv / sar=1 / overscan=0 / videoformat=5 / range=0 / colorprim=9 / transfer=16 / colormatrix=9 / chromaloc=1 / chromaloc-top=2 / chromaloc-bottom=2 / display-window=0 / master-display=G(13250,34500)B(7500,3000)R(34000,16000)WP(15635,16450)L(10000000,1) / cll=385,213 / min-luma=0 / max-luma=1023 / log2-max-poc-lsb=8 / vui-timing-info / vui-hrd-info / slices=1 / no-opt-qp-pps / no-opt-ref-list-length-pps / no-multi-pass-opt-rps / scenecut-bias=0.05 / hist-threshold=0.01 / no-opt-cu-delta-qp / no-aq-motion / hdr / hdr-opt / no-dhdr10-opt / no-idr-recovery-sei / analysis-reuse-level=5 / scale-factor=0 / refine-intra=0 / refine-inter=0 / refine-mv=1 / refine-ctu-distortion=0 / no-limit-sao / ctu-info=0 / no-lowpass-dct / refine-analysis-type=0 / copy-pic=1 / max-ausize-factor=1.0 / no-dynamic-refine / no-single-sei / no-hevc-aq / no-svt / no-field / qp-adaptation-range=1.00 / no-scenecut-aware-qp
Language : English
Default : Yes
Forced : No
Color range : Limited
Color primaries : BT.2020
Transfer characteristics : PQ
Matrix coefficients : BT.2020 non-constant
Mastering display color primaries : Display P3
Mastering display luminance : min: 0.0001 cd/m2, max: 1000 cd/m2
Maximum Content Light Level : 385 cd/m2
Maximum Frame-Average Light Level : 213 cd/m2

Audio

ID : 2
Format : E-AC-3
Format/Info : Enhanced AC-3
Commercial name : Dolby Digital Plus
Format profile : Blu-ray Disc
Codec ID : A_EAC3
Duration : 2 h 41 min
Bit rate mode : Constant
Bit rate : 1 536 kb/s
Channel(s) : 8 channels
Channel layout : L R C LFE Ls Rs Lb Rb
Sampling rate : 48.0 kHz
Frame rate : 31.250 FPS (1536 SPF)
Compression mode : Lossy
Stream size : 1.73 GiB (7%)
Title : DDP 7.1 @ 1536 kbps
Language : English
Service kind : Complete Main
Default : Yes
Forced : No

Text #1

ID : 3
Format : UTF-8
Codec ID : S_TEXT/UTF8
Codec ID/Info : UTF-8 Plain Text
Duration : 2 h 39 min
Bit rate : 56 b/s
Count of elements : 1825
Stream size : 66.4 KiB (0%)
Language : English
Default : No
Forced : No

Text #2

ID : 4
Format : UTF-8
Codec ID : S_TEXT/UTF8
Codec ID/Info : UTF-8 Plain Text
Duration : 2 h 40 min
Bit rate : 60 b/s
Count of elements : 2058
Stream size : 71.6 KiB (0%)
Title : SDH
Language : English
Default : No
Forced : No

Text #3

ID : 5
Format : UTF-8
Codec ID : S_TEXT/UTF8
Codec ID/Info : UTF-8 Plain Text
Duration : 2 h 40 min
Bit rate : 50 b/s
Count of elements : 1755
Stream size : 58.9 KiB (0%)
Language : Portuguese
Default : No
Forced : No

Text #4

ID : 6
Format : UTF-8
Codec ID : S_TEXT/UTF8
Codec ID/Info : UTF-8 Plain Text
Duration : 2 h 40 min
Bit rate : 49 b/s
Count of elements : 1707
Stream size : 58.1 KiB (0%)
Title : Brazilian
Language : Portuguese
Default : No
Forced : No

Menu

00:00:00.000 : en:Chapter 01
00:04:49.414 : en:Chapter 02
00:13:45.199 : en:Chapter 03
00:18:29.150 : en:Chapter 04
00:22:00.319 : en:Chapter 05
00:25:59.349 : en:Chapter 06
00:28:41.094 : en:Chapter 07
00:33:45.106 : en:Chapter 08
00:40:19.334 : en:Chapter 09
00:49:59.455 : en:Chapter 10
00:51:48.689 : en:Chapter 11
00:59:52.255 : en:Chapter 12
01:02:32.874 : en:Chapter 13
01:04:28.615 : en:Chapter 14
01:09:16.736 : en:Chapter 15
01:17:40.781 : en:Chapter 16
01:20:25.779 : en:Chapter 17
01:26:28.433 : en:Chapter 18
01:32:54.444 : en:Chapter 19
01:39:58.492 : en:Chapter 20
01:47:55.219 : en:Chapter 21
01:53:00.232 : en:Chapter 22
01:58:09.541 : en:Chapter 23
02:06:23.993 : en:Chapter 24
02:11:22.958 : en:Chapter 25
02:15:50.100 : en:Chapter 26
02:21:30.190 : en:Chapter 27
02:29:50.732 : en:Chapter 28
02:36:28.254 : en:Chapter 29
02:38:51.230 : en:Chapter 30