General

Unique ID : 171730163828461541926028676157524230306 (0x813206C7DD129D4E4F891D13379940A2)
Complete name : /movies/o/Once_Upon_a_Time_in_Hollywood_2019_1080p_x265_BrRip_6CH_PSA_30NAMA.mkv
Format : Matroska
Format version : Version 4
File size : 2.32 GiB
Duration : 2 h 41 min
Overall bit rate : 2 058 kb/s
Movie name : PSArips.com | Once.Upon.a.Time.in.Hollywood.2019.1080p.BrRip.6CH.x265.HEVC-PSA
Encoded date : UTC 2019-11-27 14:05:39
Writing application : mkvmerge v40.0.0 ('Old Town Road + Pony') 64-bit
Writing library : libebml v1.3.9 + libmatroska v1.5.2

Video

ID : 1
Format : HEVC
Format/Info : High Efficiency Video Coding
Format profile : Main@L4@Main
Codec ID : V_MPEGH/ISO/HEVC
Duration : 2 h 41 min
Bit rate : 1 868 kb/s
Width : 1 920 pixels
Height : 800 pixels
Display aspect ratio : 2.40:1
Frame rate mode : Constant
Frame rate : 23.976 (24000/1001) FPS
Color space : YUV
Chroma subsampling : 4:2:0
Bit depth : 8 bits
Bits/(Pixel*Frame) : 0.051
Stream size : 2.11 GiB (91%)
Default : Yes
Forced : No

Audio

ID : 2
Format : AAC LC SBR
Format/Info : Advanced Audio Codec Low Complexity with Spectral Band Replication
Commercial name : HE-AAC
Format settings : Explicit
Codec ID : A_AAC-2
Duration : 2 h 41 min
Bit rate : 188 kb/s
Channel(s) : 6 channels
Channel layout : C L R Ls Rs LFE
Sampling rate : 48.0 kHz
Frame rate : 23.438 FPS (2048 SPF)
Compression mode : Lossy
Delay relative to video : 23 ms
Stream size : 217 MiB (9%)
Language : English
Default : Yes
Forced : No

Text #1

ID : 3
Format : UTF-8
Codec ID : S_TEXT/UTF8
Codec ID/Info : UTF-8 Plain Text
Duration : 2 h 40 min
Bit rate : 56 b/s
Count of elements : 1822
Stream size : 66.7 KiB (0%)
Language : English
Default : Yes
Forced : No

Text #2

ID : 4
Format : UTF-8
Codec ID : S_TEXT/UTF8
Codec ID/Info : UTF-8 Plain Text
Duration : 2 h 40 min
Bit rate : 60 b/s
Count of elements : 2057
Stream size : 71.8 KiB (0%)
Title : SDH
Language : English
Default : No
Forced : No

Menu

00:00:00.000 : :00:00:00.000
00:04:49.600 : :00:04:49.414
00:13:45.200 : :00:13:45.199
00:18:29.200 : :00:18:29.150
00:22:00.400 : :00:22:00.319
00:25:59.400 : :00:25:59.349
00:28:41.200 : :00:28:41.094
00:33:45.400 : :00:33:45.106
00:40:19.400 : :00:40:19.334
00:49:59.600 : :00:49:59.455
00:51:48.800 : :00:51:48.689
00:59:52.400 : :00:59:52.255
01:02:33.000 : :01:02:32.874
01:04:28.800 : :01:04:28.615
01:09:16.800 : :01:09:16.736
01:17:40.800 : :01:17:40.781
01:20:25.800 : :01:20:25.779
01:26:28.600 : :01:26:28.433
01:32:54.600 : :01:32:54.444
01:39:58.600 : :01:39:58.492
01:47:55.400 : :01:47:55.219
01:53:00.400 : :01:53:00.232
01:58:09.600 : :01:58:09.541
02:06:24.000 : :02:06:23.993
02:11:23.000 : :02:11:22.958
02:15:50.200 : :02:15:50.100
02:21:30.200 : :02:21:30.190
02:29:50.800 : :02:29:50.732
02:36:28.400 : :02:36:28.254
02:38:51.400 : :02:38:51.230