General

Unique ID : 293987078383731132402064664916848269111 (0xDD2BDA0C6EE1ADE986DCCC712EB3D737)
Complete name : /movies/m/Missing_Link_2019_10bit_1080p_x265_BluRay_Tigole_30NAMA.mkv
Format : Matroska
Format version : Version 4
File size : 3.35 GiB
Duration : 1 h 34 min
Overall bit rate : 5 080 kb/s
Movie name : Missing Link
Encoded date : UTC 2019-07-17 10:44:05
Writing application : mkvmerge v32.0.0 ('Astral Progressions') 64-bit
Writing library : libebml v1.3.7 + libmatroska v1.5.0

Video

ID : 1
Format : HEVC
Format/Info : High Efficiency Video Coding
Format profile : Main 10@L4@Main
Codec ID : V_MPEGH/ISO/HEVC
Duration : 1 h 34 min
Bit rate : 4 415 kb/s
Width : 1 920 pixels
Height : 800 pixels
Display aspect ratio : 2.40:1
Frame rate mode : Constant
Frame rate : 23.976 (24000/1001) FPS
Color space : YUV
Chroma subsampling : 4:2:0
Bit depth : 10 bits
Bits/(Pixel*Frame) : 0.120
Stream size : 2.91 GiB (87%)
Writing library : x265 3.0_Au+18-768ab38fd5fd:[Windows][GCC 8.3.0][64 bit] 10bit
Encoding settings : cpuid=1111039 / frame-threads=3 / numa-pools=8 / wpp / no-pmode / no-pme / no-psnr / no-ssim / log-level=2 / input-csp=1 / input-res=1920x800 / interlace=0 / total-frames=135840 / level-idc=0 / high-tier=1 / uhd-bd=0 / ref=4 / no-allow-non-conformance / no-repeat-headers / annexb / no-aud / no-hrd / info / hash=0 / no-temporal-layers / open-gop / min-keyint=23 / keyint=250 / gop-lookahead=0 / bframes=8 / b-adapt=2 / b-pyramid / bframe-bias=0 / rc-lookahead=25 / lookahead-slices=4 / scenecut=40 / radl=0 / no-splice / no-intra-refresh / ctu=64 / min-cu-size=8 / rect / no-amp / max-tu-size=32 / tu-inter-depth=1 / tu-intra-depth=1 / limit-tu=0 / rdoq-level=2 / dynamic-rd=0.00 / no-ssim-rd / signhide / no-tskip / nr-intra=0 / nr-inter=0 / no-constrained-intra / strong-intra-smoothing / max-merge=3 / limit-refs=3 / limit-modes / me=3 / subme=3 / merange=57 / temporal-mvp / weightp / no-weightb / no-analyze-src-pics / deblock=0:0 / no-sao / no-sao-non-deblock / rd=4 / no-early-skip / rskip / no-fast-intra / no-tskip-fast / no-cu-lossless / no-b-intra / no-splitrd-skip / rdpenalty=0 / psy-rd=2.00 / psy-rdoq=1.00 / no-rd-refine / no-lossless / cbqpoffs=0 / crqpoffs=0 / rc=crf / crf=18.0 / qcomp=0.60 / qpstep=4 / stats-write=0 / stats-read=0 / ipratio=1.40 / pbratio=1.30 / aq-mode=3 / aq-strength=1.00 / cutree / zone-count=0 / no-strict-cbr / qg-size=32 / no-rc-grain / qpmax=69 / qpmin=0 / no-const-vbv / sar=0 / overscan=0 / videoformat=5 / range=0 / colorprim=2 / transfer=2 / colormatrix=2 / chromaloc=0 / display-window=0 / max-cll=0,0 / min-luma=0 / max-luma=1023 / log2-max-poc-lsb=8 / vui-timing-info / vui-hrd-info / slices=1 / no-opt-qp-pps / no-opt-ref-list-length-pps / no-multi-pass-opt-rps / scenecut-bias=0.05 / no-opt-cu-delta-qp / aq-motion / no-hdr / no-hdr-opt / no-dhdr10-opt / no-idr-recovery-sei / analysis-reuse-level=5 / scale-factor=0 / refine-intra=0 / refine-inter=0 / refine-mv=0 / refine-ctu-distortion=0 / no-limit-sao / ctu-info=0 / no-lowpass-dct / refine-analysis-type=0 / copy-pic=1 / max-ausize-factor=1.0 / no-dynamic-refine / no-single-sei / no-hevc-aq / no-svt / qp-adaptation-range=1.00
Default : Yes
Forced : No

Audio #1

ID : 2
Format : AAC LC
Format/Info : Advanced Audio Codec Low Complexity
Codec ID : A_AAC-2
Duration : 1 h 34 min
Bit rate : 564 kb/s
Channel(s) : 8 channels
Channel layout : C L R Ls Rs Rls Rb LFE
Sampling rate : 48.0 kHz
Frame rate : 46.875 FPS (1024 SPF)
Compression mode : Lossy
Delay relative to video : 20 ms
Stream size : 381 MiB (11%)
Language : English
Default : Yes
Forced : No

Audio #2

ID : 3
Format : AAC LC SBR
Format/Info : Advanced Audio Codec Low Complexity with Spectral Band Replication
Commercial name : HE-AAC
Format settings : Explicit
Codec ID : A_AAC-2
Duration : 1 h 34 min
Bit rate : 66.2 kb/s
Channel(s) : 2 channels
Channel layout : L R
Sampling rate : 48.0 kHz
Frame rate : 23.438 FPS (2048 SPF)
Compression mode : Lossy
Delay relative to video : 40 ms
Stream size : 44.5 MiB (1%)
Title : Commentary
Language : English
Default : No
Forced : No

Text #1

ID : 4
Format : VobSub
Muxing mode : zlib
Codec ID : S_VOBSUB
Codec ID/Info : Picture based subtitle format used on DVDs
Duration : 1 h 34 min
Bit rate : 11.0 kb/s
Count of elements : 1635
Stream size : 7.42 MiB (0%)
Language : English
Default : No
Forced : No

Text #2

ID : 5
Format : VobSub
Muxing mode : zlib
Codec ID : S_VOBSUB
Codec ID/Info : Picture based subtitle format used on DVDs
Duration : 8 s 46 ms
Bit rate : 17.4 kb/s
Count of elements : 5
Stream size : 17.1 KiB (0%)
Title : Forced
Language : English
Default : No
Forced : Yes

Text #3

ID : 6
Format : VobSub
Muxing mode : zlib
Codec ID : S_VOBSUB
Codec ID/Info : Picture based subtitle format used on DVDs
Duration : 1 h 34 min
Bit rate : 16.1 kb/s
Count of elements : 1704
Stream size : 10.9 MiB (0%)
Title : Commentary
Language : English
Default : No
Forced : No

Text #4

ID : 7
Format : VobSub
Muxing mode : zlib
Codec ID : S_VOBSUB
Codec ID/Info : Picture based subtitle format used on DVDs
Duration : 1 h 33 min
Bit rate : 8 512 b/s
Count of elements : 1167
Stream size : 5.67 MiB (0%)
Language : Spanish
Default : No
Forced : No

Text #5

ID : 8
Format : VobSub
Muxing mode : zlib
Codec ID : S_VOBSUB
Codec ID/Info : Picture based subtitle format used on DVDs
Duration : 1 h 34 min
Bit rate : 15.6 kb/s
Count of elements : 1738
Stream size : 10.5 MiB (0%)
Title : Commentary
Language : Spanish
Default : No
Forced : No

Menu

00:00:00.000 : en:Chapter 01
00:05:12.520 : en:Chapter 02
00:08:53.616 : en:Chapter 03
00:12:29.206 : en:Chapter 04
00:15:35.851 : en:Chapter 05
00:20:18.550 : en:Chapter 06
00:24:26.840 : en:Chapter 07
00:29:55.126 : en:Chapter 08
00:33:14.659 : en:Chapter 09
00:36:40.948 : en:Chapter 10
00:40:33.389 : en:Chapter 11
00:43:45.164 : en:Chapter 12
00:47:24.299 : en:Chapter 13
00:52:50.876 : en:Chapter 14
00:55:14.477 : en:Chapter 15
00:58:51.903 : en:Chapter 16
00:59:59.721 : en:Chapter 17
01:02:54.729 : en:Chapter 18
01:05:15.494 : en:Chapter 19
01:08:17.176 : en:Chapter 20
01:11:00.339 : en:Chapter 21
01:13:20.437 : en:Chapter 22
01:21:51.197 : en:Chapter 23
01:24:48.625 : en:Chapter 24