General

Unique ID : 204459615102766446203596048103875507871 (0x99D17D50D1569E0E868806813197769F)
Complete name : /movies/d/Deadpool_2016_HDR_1080p_BluRay_Full_HD_CtrlHD_30NAMA.mkv
Format : Matroska
Format version : Version 4
File size : 8.89 GiB
Duration : 1 h 48 min
Overall bit rate : 11.8 Mb/s
Movie name : Deadpool
Encoded date : UTC 2016-04-28 06:43:53
Writing application : mkvmerge v9.1.0 ('Little Earthquakes') 64bit
Writing library : libebml v1.3.3 + libmatroska v1.4.4

Video

ID : 1
Format : AVC
Format/Info : Advanced Video Codec
Format profile : High@L4.1
Format settings : CABAC / 5 Ref Frames
Format settings, CABAC : Yes
Format settings, ReFrames : 5 frames
Codec ID : V_MPEG4/ISO/AVC
Duration : 1 h 48 min
Bit rate : 11.0 Mb/s
Width : 1 920 pixels
Height : 804 pixels
Display aspect ratio : 2.40:1
Frame rate mode : Constant
Frame rate : 23.976 (24000/1001) FPS
Color space : YUV
Chroma subsampling : 4:2:0
Bit depth : 8 bits
Scan type : Progressive
Bits/(Pixel*Frame) : 0.297
Stream size : 8.31 GiB (93%)
Writing library : x264 core 148 r2665kMod a01e339
Encoding settings : cabac=1 / ref=5 / deblock=1:-3:-3 / analyse=0x3:0x133 / me=umh / subme=10 / psy=1 / fade_compensate=0.00 / psy_rd=1.00:0.00 / mixed_ref=1 / me_range=32 / chroma_me=1 / trellis=2 / 8x8dct=1 / cqm=0 / deadzone=21,11 / fast_pskip=0 / chroma_qp_offset=-2 / threads=6 / lookahead_threads=1 / sliced_threads=0 / nr=0 / decimate=0 / interlaced=0 / bluray_compat=0 / constrained_intra=0 / fgo=0 / bframes=8 / b_pyramid=2 / b_adapt=2 / b_bias=0 / direct=3 / weightb=1 / open_gop=0 / weightp=2 / keyint=250 / keyint_min=23 / scenecut=40 / intra_refresh=0 / rc=crf / mbtree=0 / crf=18.0000 / qcomp=0.60 / qpmin=0 / qpmax=69 / qpstep=4 / ip_ratio=1.40 / pb_ratio=1.30 / aq=3:0.90
Language : English
Default : Yes
Forced : No

Audio #1

ID : 2
Format : AC-3
Format/Info : Audio Coding 3
Commercial name : Dolby Digital
Codec ID : A_AC3
Duration : 1 h 48 min
Bit rate mode : Constant
Bit rate : 640 kb/s
Channel(s) : 6 channels
Channel layout : L R C LFE Ls Rs
Sampling rate : 48.0 kHz
Frame rate : 31.250 FPS (1536 SPF)
Bit depth : 16 bits
Compression mode : Lossy
Stream size : 495 MiB (5%)
Language : English
Service kind : Complete Main
Default : Yes
Forced : No

Audio #2

ID : 3
Format : AAC LC SBR
Format/Info : Advanced Audio Codec Low Complexity with Spectral Band Replication
Commercial name : HE-AAC
Format settings : Explicit
Codec ID : A_AAC-2
Duration : 1 h 48 min
Bit rate : 62.6 kb/s
Channel(s) : 2 channels
Channel layout : L R
Sampling rate : 48.0 kHz
Frame rate : 23.438 FPS (2048 SPF)
Compression mode : Lossy
Delay relative to video : 31 ms
Stream size : 48.4 MiB (1%)
Title : Commentary with Ryan Reynolds, Rhett Reese and Paul Wernick
Language : English
Default : No
Forced : No

Audio #3

ID : 4
Format : AAC LC SBR
Format/Info : Advanced Audio Codec Low Complexity with Spectral Band Replication
Commercial name : HE-AAC
Format settings : Explicit
Codec ID : A_AAC-2
Duration : 1 h 48 min
Bit rate : 61.2 kb/s
Channel(s) : 2 channels
Channel layout : L R
Sampling rate : 48.0 kHz
Frame rate : 23.438 FPS (2048 SPF)
Compression mode : Lossy
Delay relative to video : 31 ms
Stream size : 47.3 MiB (1%)
Title : Commentary with Tim Miller and Rob Liefeld
Language : English
Default : No
Forced : No

Text #1

ID : 5
Format : UTF-8
Codec ID : S_TEXT/UTF8
Codec ID/Info : UTF-8 Plain Text
Duration : 1 s 919 ms
Bit rate : 70 b/s
Count of elements : 1
Stream size : 17.0 Bytes (0%)
Title : Forced
Language : English
Default : Yes
Forced : Yes

Text #2

ID : 6
Format : UTF-8
Codec ID : S_TEXT/UTF8
Codec ID/Info : UTF-8 Plain Text
Duration : 1 h 44 min
Bit rate : 59 b/s
Count of elements : 1571
Stream size : 45.4 KiB (0%)
Language : English
Default : No
Forced : No

Text #3

ID : 7
Format : UTF-8
Codec ID : S_TEXT/UTF8
Codec ID/Info : UTF-8 Plain Text
Duration : 1 h 47 min
Bit rate : 57 b/s
Count of elements : 1371
Stream size : 44.8 KiB (0%)
Language : Spanish
Default : No
Forced : No

Text #4

ID : 8
Format : UTF-8
Codec ID : S_TEXT/UTF8
Codec ID/Info : UTF-8 Plain Text
Duration : 1 h 47 min
Bit rate : 57 b/s
Count of elements : 1417
Stream size : 45.3 KiB (0%)
Language : French
Default : No
Forced : No

Text #5

ID : 9
Format : UTF-8
Codec ID : S_TEXT/UTF8
Codec ID/Info : UTF-8 Plain Text
Duration : 1 h 47 min
Bit rate : 140 b/s
Count of elements : 2352
Stream size : 111 KiB (0%)
Title : Commentary with Ryan Reynolds, Rhett Reese and Paul Wernick
Language : English
Default : No
Forced : No

Text #6

ID : 10
Format : UTF-8
Codec ID : S_TEXT/UTF8
Codec ID/Info : UTF-8 Plain Text
Duration : 1 h 47 min
Bit rate : 136 b/s
Count of elements : 1963
Stream size : 108 KiB (0%)
Title : Commentary with Tim Miller and Rob Liefeld
Language : English
Default : No
Forced : No

Text #7

ID : 11
Format : UTF-8
Codec ID : S_TEXT/UTF8
Codec ID/Info : UTF-8 Plain Text
Duration : 1 h 48 min
Bit rate : 124 b/s
Count of elements : 2249
Stream size : 98.6 KiB (0%)
Title : Commentary with Ryan Reynolds, Rhett Reese and Paul Wernick
Language : Spanish
Default : No
Forced : No

Text #8

ID : 12
Format : UTF-8
Codec ID : S_TEXT/UTF8
Codec ID/Info : UTF-8 Plain Text
Duration : 1 h 48 min
Bit rate : 127 b/s
Count of elements : 1922
Stream size : 101 KiB (0%)
Title : Commentary with Tim Miller and Rob Liefeld
Language : Spanish
Default : No
Forced : No

Text #9

ID : 13
Format : UTF-8
Codec ID : S_TEXT/UTF8
Codec ID/Info : UTF-8 Plain Text
Duration : 1 h 48 min
Bit rate : 128 b/s
Count of elements : 2255
Stream size : 102 KiB (0%)
Title : Commentary with Ryan Reynolds, Rhett Reese and Paul Wernick
Language : French
Default : No
Forced : No

Text #10

ID : 14
Format : UTF-8
Codec ID : S_TEXT/UTF8
Codec ID/Info : UTF-8 Plain Text
Duration : 1 h 48 min
Bit rate : 137 b/s
Count of elements : 1923
Stream size : 109 KiB (0%)
Title : Commentary with Tim Miller and Rob Liefeld
Language : French
Default : No
Forced : No

Text #11

ID : 15
Format : UTF-8
Codec ID : S_TEXT/UTF8
Codec ID/Info : UTF-8 Plain Text
Duration : 1 h 47 min
Bit rate : 64 b/s
Count of elements : 1852
Stream size : 51.0 KiB (0%)
Title : SDH
Language : English
Default : No
Forced : No

Text #12

ID : 16
Format : UTF-8
Codec ID : S_TEXT/UTF8
Codec ID/Info : UTF-8 Plain Text
Duration : 1 h 48 min
Bit rate : 155 b/s
Count of elements : 2421
Stream size : 123 KiB (0%)
Title : Commentary with Ryan Reynolds, Rhett Reese and Paul Wernick SDH
Language : English
Default : No
Forced : No

Text #13

ID : 17
Format : UTF-8
Codec ID : S_TEXT/UTF8
Codec ID/Info : UTF-8 Plain Text
Duration : 1 h 47 min
Bit rate : 142 b/s
Count of elements : 1994
Stream size : 113 KiB (0%)
Title : Commentary with Tim Miller and Rob Liefeld SDH
Language : English
Default : No
Forced : No

Menu

00:00:00.000 : en:00:00:00.000
00:03:04.726 : en:00:03:04.726
00:05:53.019 : en:00:05:53.019
00:09:30.820 : en:00:09:30.820
00:13:19.090 : en:00:13:19.090
00:16:48.716 : en:00:16:48.716
00:20:12.545 : en:00:20:12.545
00:22:06.408 : en:00:22:06.408
00:27:09.628 : en:00:27:09.628
00:31:58.959 : en:00:31:58.959
00:36:51.709 : en:00:36:51.709
00:41:06.172 : en:00:41:06.172
00:44:45.766 : en:00:44:45.766
00:46:56.605 : en:00:46:56.605
00:50:10.966 : en:00:50:10.966
00:53:18.028 : en:00:53:18.028
00:55:33.038 : en:00:55:33.038
00:59:07.753 : en:00:59:07.753
01:03:05.240 : en:01:03:05.240
01:07:06.439 : en:01:07:06.439
01:09:15.568 : en:01:09:15.568
01:12:29.720 : en:01:12:29.720
01:16:46.393 : en:01:16:46.393
01:20:43.714 : en:01:20:43.714
01:25:53.398 : en:01:25:53.398
01:31:03.792 : en:01:31:03.792
01:34:46.973 : en:01:34:46.973
01:39:52.737 : en:01:39:52.737