General

Unique ID : 287706452578311568255212852661668768622 (0xD8723F49E6D25F18B7B8B4A74EDF6B6E)
Complete name : /movies/d/Deadpool_2016_10bit_HDR_2160p_x265_BluRay_UHD_Tigole_30NAMA.mkv
Format : Matroska
Format version : Version 4
File size : 10.4 GiB
Duration : 1 h 48 min
Overall bit rate : 13.7 Mb/s
Movie name : Deadpool
Encoded date : UTC 2018-07-30 10:38:16
Writing application : mkvmerge v20.0.0 ('I Am The Sun') 64-bit
Writing library : libebml v1.3.5 + libmatroska v1.4.8

Video

ID : 1
Format : HEVC
Format/Info : High Efficiency Video Coding
Commercial name : HDR10
Format profile : Main 10@L5@Main
Codec ID : V_MPEGH/ISO/HEVC
Duration : 1 h 48 min
Bit rate : 12.5 Mb/s
Width : 3 840 pixels
Height : 1 608 pixels
Display aspect ratio : 2.40:1
Frame rate mode : Constant
Frame rate : 23.976 (24000/1001) FPS
Color space : YUV
Chroma subsampling : 4:2:0
Bit depth : 10 bits
Bits/(Pixel*Frame) : 0.084
Stream size : 9.44 GiB (91%)
Writing library : x265 2.8+40-0106f9f2f867:[Windows][GCC 7.3.0][64 bit] 10bit
Encoding settings : cpuid=1111039 / frame-threads=3 / numa-pools=8 / wpp / no-pmode / no-pme / no-psnr / no-ssim / log-level=2 / input-csp=1 / input-res=3840x1608 / interlace=0 / total-frames=155514 / level-idc=0 / high-tier=1 / uhd-bd=0 / ref=4 / no-allow-non-conformance / repeat-headers / annexb / no-aud / no-hrd / info / hash=0 / no-temporal-layers / open-gop / min-keyint=23 / keyint=250 / gop-lookahead=0 / bframes=4 / b-adapt=2 / b-pyramid / bframe-bias=0 / rc-lookahead=25 / lookahead-slices=4 / scenecut=40 / radl=0 / no-intra-refresh / ctu=64 / min-cu-size=8 / rect / no-amp / max-tu-size=32 / tu-inter-depth=1 / tu-intra-depth=1 / limit-tu=0 / rdoq-level=2 / dynamic-rd=0.00 / no-ssim-rd / signhide / no-tskip / nr-intra=0 / nr-inter=0 / no-constrained-intra / strong-intra-smoothing / max-merge=3 / limit-refs=3 / limit-modes / me=3 / subme=3 / merange=57 / temporal-mvp / weightp / no-weightb / no-analyze-src-pics / deblock=0:0 / sao / no-sao-non-deblock / rd=4 / no-early-skip / rskip / no-fast-intra / no-tskip-fast / no-cu-lossless / no-b-intra / no-splitrd-skip / rdpenalty=0 / psy-rd=2.00 / psy-rdoq=1.00 / no-rd-refine / no-lossless / cbqpoffs=0 / crqpoffs=0 / rc=crf / crf=18.0 / qcomp=0.60 / qpstep=4 / stats-write=0 / stats-read=0 / ipratio=1.40 / pbratio=1.30 / aq-mode=3 / aq-strength=1.00 / cutree / zone-count=0 / no-strict-cbr / qg-size=32 / no-rc-grain / qpmax=69 / qpmin=0 / no-const-vbv / sar=0 / overscan=0 / videoformat=5 / range=0 / colorprim=9 / transfer=16 / colormatrix=9 / chromaloc=0 / display-window=0 / master-display=G(13250,34500)B(7500,3000)R(34000,16000)WP(15635,16450)L(10000000,0) / max-cll=0,0 / min-luma=0 / max-luma=1023 / log2-max-poc-lsb=8 / vui-timing-info / vui-hrd-info / slices=1 / no-opt-qp-pps / no-opt-ref-list-length-pps / no-multi-pass-opt-rps / scenecut-bias=0.05 / no-opt-cu-delta-qp / aq-motion / hdr / hdr-opt / no-dhdr10-opt / no-idr-recovery-sei / analysis-reuse-level=5 / scale-factor=0 / refine-intra=0 / refine-inter=0 / refine-mv=0 / no-limit-sao / ctu-info=0 / no-lowpass-dct / refine-mv-type=0 / copy-pic=1 / max-ausize-factor=1.0 / no-dynamic-refine / no-single-sei
Default : Yes
Forced : No
Color range : Limited
Color primaries : BT.2020
Transfer characteristics : PQ
Matrix coefficients : BT.2020 non-constant
Mastering display color primaries : Display P3
Mastering display luminance : min: 0.0000 cd/m2, max: 1000 cd/m2

Audio #1

ID : 2
Format : AAC LC
Format/Info : Advanced Audio Codec Low Complexity
Codec ID : A_AAC-2
Duration : 1 h 48 min
Bit rate : 791 kb/s
Channel(s) : 8 channels
Channel layout : C L R Ls Rs Rls Rb LFE
Sampling rate : 48.0 kHz
Frame rate : 46.875 FPS (1024 SPF)
Compression mode : Lossy
Delay relative to video : 20 ms
Stream size : 612 MiB (6%)
Language : English
Default : Yes
Forced : No

Audio #2

ID : 3
Format : AAC LC SBR
Format/Info : Advanced Audio Codec Low Complexity with Spectral Band Replication
Commercial name : HE-AAC
Format settings : Explicit
Codec ID : A_AAC-2
Duration : 1 h 48 min
Bit rate : 66.2 kb/s
Channel(s) : 2 channels
Channel layout : L R
Sampling rate : 48.0 kHz
Frame rate : 23.438 FPS (2048 SPF)
Compression mode : Lossy
Delay relative to video : 40 ms
Stream size : 50.9 MiB (0%)
Title : Commentary 1
Language : English
Default : No
Forced : No

Audio #3

ID : 4
Format : AAC LC SBR
Format/Info : Advanced Audio Codec Low Complexity with Spectral Band Replication
Commercial name : HE-AAC
Format settings : Explicit
Codec ID : A_AAC-2
Duration : 1 h 48 min
Bit rate : 66.2 kb/s
Channel(s) : 2 channels
Channel layout : L R
Sampling rate : 48.0 kHz
Frame rate : 23.438 FPS (2048 SPF)
Compression mode : Lossy
Delay relative to video : 40 ms
Stream size : 50.9 MiB (0%)
Title : Commentary 2
Language : English
Default : No
Forced : No

Text #1

ID : 5
Format : VobSub
Muxing mode : zlib
Codec ID : S_VOBSUB
Codec ID/Info : Picture based subtitle format used on DVDs
Duration : 1 h 47 min
Bit rate : 12.1 kb/s
Count of elements : 1852
Stream size : 9.33 MiB (0%)
Language : English
Default : No
Forced : No

Text #2

ID : 6
Format : VobSub
Muxing mode : zlib
Codec ID : S_VOBSUB
Codec ID/Info : Picture based subtitle format used on DVDs
Duration : 1 s 911 ms
Bit rate : 17.5 kb/s
Count of elements : 1
Stream size : 4.08 KiB (0%)
Title : Forced
Language : English
Default : No
Forced : Yes

Text #3

ID : 7
Format : VobSub
Muxing mode : zlib
Codec ID : S_VOBSUB
Codec ID/Info : Picture based subtitle format used on DVDs
Duration : 1 h 48 min
Bit rate : 23.3 kb/s
Count of elements : 2421
Stream size : 18.0 MiB (0%)
Title : Commentary 1
Language : English
Default : No
Forced : No

Text #4

ID : 8
Format : VobSub
Muxing mode : zlib
Codec ID : S_VOBSUB
Codec ID/Info : Picture based subtitle format used on DVDs
Duration : 1 h 47 min
Bit rate : 20.6 kb/s
Count of elements : 1994
Stream size : 15.9 MiB (0%)
Title : Commentary 2
Language : English
Default : No
Forced : No

Text #5

ID : 9
Format : VobSub
Muxing mode : zlib
Codec ID : S_VOBSUB
Codec ID/Info : Picture based subtitle format used on DVDs
Duration : 1 h 47 min
Bit rate : 6 175 b/s
Count of elements : 1450
Stream size : 4.74 MiB (0%)
Language : Chinese
Default : No
Forced : No

Text #6

ID : 10
Format : VobSub
Muxing mode : zlib
Codec ID : S_VOBSUB
Codec ID/Info : Picture based subtitle format used on DVDs
Duration : 1 h 47 min
Bit rate : 9 011 b/s
Count of elements : 1191
Stream size : 6.91 MiB (0%)
Language : Danish
Default : No
Forced : No

Text #7

ID : 11
Format : VobSub
Muxing mode : zlib
Codec ID : S_VOBSUB
Codec ID/Info : Picture based subtitle format used on DVDs
Duration : 1 h 48 min
Bit rate : 16.7 kb/s
Count of elements : 2231
Stream size : 12.9 MiB (0%)
Title : Commentary 1
Language : Danish
Default : No
Forced : No

Text #8

ID : 12
Format : VobSub
Muxing mode : zlib
Codec ID : S_VOBSUB
Codec ID/Info : Picture based subtitle format used on DVDs
Duration : 1 h 48 min
Bit rate : 18.1 kb/s
Count of elements : 1920
Stream size : 14.0 MiB (0%)
Title : Commentary 2
Language : Danish
Default : No
Forced : No

Text #9

ID : 13
Format : VobSub
Muxing mode : zlib
Codec ID : S_VOBSUB
Codec ID/Info : Picture based subtitle format used on DVDs
Duration : 1 h 47 min
Bit rate : 8 335 b/s
Count of elements : 1238
Stream size : 6.39 MiB (0%)
Language : Dutch
Default : No
Forced : No

Text #10

ID : 14
Format : VobSub
Muxing mode : zlib
Codec ID : S_VOBSUB
Codec ID/Info : Picture based subtitle format used on DVDs
Duration : 1 h 48 min
Bit rate : 16.9 kb/s
Count of elements : 2235
Stream size : 13.0 MiB (0%)
Title : Commentary 1
Language : Dutch
Default : No
Forced : No

Text #11

ID : 15
Format : VobSub
Muxing mode : zlib
Codec ID : S_VOBSUB
Codec ID/Info : Picture based subtitle format used on DVDs
Duration : 1 h 48 min
Bit rate : 17.2 kb/s
Count of elements : 1923
Stream size : 13.3 MiB (0%)
Title : Commentary 2
Language : Dutch
Default : No
Forced : No

Text #12

ID : 16
Format : VobSub
Muxing mode : zlib
Codec ID : S_VOBSUB
Codec ID/Info : Picture based subtitle format used on DVDs
Duration : 1 h 47 min
Bit rate : 8 197 b/s
Count of elements : 1400
Stream size : 6.28 MiB (0%)
Language : Finnish
Default : No
Forced : No

Text #13

ID : 17
Format : VobSub
Muxing mode : zlib
Codec ID : S_VOBSUB
Codec ID/Info : Picture based subtitle format used on DVDs
Duration : 1 h 48 min
Bit rate : 16.7 kb/s
Count of elements : 2248
Stream size : 12.9 MiB (0%)
Title : Commentary 1
Language : Finnish
Default : No
Forced : No

Text #14

ID : 18
Format : VobSub
Muxing mode : zlib
Codec ID : S_VOBSUB
Codec ID/Info : Picture based subtitle format used on DVDs
Duration : 1 h 48 min
Bit rate : 15.0 kb/s
Count of elements : 1923
Stream size : 11.6 MiB (0%)
Title : Commentary 2
Language : Finnish
Default : No
Forced : No

Text #15

ID : 19
Format : VobSub
Muxing mode : zlib
Codec ID : S_VOBSUB
Codec ID/Info : Picture based subtitle format used on DVDs
Duration : 1 h 45 min
Bit rate : 7 876 b/s
Count of elements : 1373
Stream size : 5.92 MiB (0%)
Language : French
Default : No
Forced : No

Text #16

ID : 20
Format : VobSub
Muxing mode : zlib
Codec ID : S_VOBSUB
Codec ID/Info : Picture based subtitle format used on DVDs
Duration : 1 h 48 min
Bit rate : 15.9 kb/s
Count of elements : 2224
Stream size : 12.3 MiB (0%)
Title : Commentary 1
Language : French
Default : No
Forced : No

Text #17

ID : 21
Format : VobSub
Muxing mode : zlib
Codec ID : S_VOBSUB
Codec ID/Info : Picture based subtitle format used on DVDs
Duration : 1 h 48 min
Bit rate : 15.9 kb/s
Count of elements : 1923
Stream size : 12.2 MiB (0%)
Title : Commentary 2
Language : French
Default : No
Forced : No

Text #18

ID : 22
Format : VobSub
Muxing mode : zlib
Codec ID : S_VOBSUB
Codec ID/Info : Picture based subtitle format used on DVDs
Duration : 1 h 47 min
Bit rate : 9 430 b/s
Count of elements : 1375
Stream size : 7.23 MiB (0%)
Language : German
Default : No
Forced : No

Text #19

ID : 23
Format : VobSub
Muxing mode : zlib
Codec ID : S_VOBSUB
Codec ID/Info : Picture based subtitle format used on DVDs
Duration : 1 h 47 min
Bit rate : 105 b/s
Count of elements : 14
Stream size : 82.8 KiB (0%)
Title : Forced
Language : German
Default : No
Forced : No

Text #20

ID : 24
Format : VobSub
Muxing mode : zlib
Codec ID : S_VOBSUB
Codec ID/Info : Picture based subtitle format used on DVDs
Duration : 1 h 48 min
Bit rate : 18.5 kb/s
Count of elements : 2244
Stream size : 14.3 MiB (0%)
Title : Commentary 1
Language : German
Default : No
Forced : No

Text #21

ID : 25
Format : VobSub
Muxing mode : zlib
Codec ID : S_VOBSUB
Codec ID/Info : Picture based subtitle format used on DVDs
Duration : 1 h 48 min
Bit rate : 18.5 kb/s
Count of elements : 1924
Stream size : 14.3 MiB (0%)
Title : Commentary 2
Language : German
Default : No
Forced : No

Text #22

ID : 26
Format : VobSub
Muxing mode : zlib
Codec ID : S_VOBSUB
Codec ID/Info : Picture based subtitle format used on DVDs
Duration : 1 h 47 min
Bit rate : 9 540 b/s
Count of elements : 1408
Stream size : 7.30 MiB (0%)
Language : Italian
Default : No
Forced : No

Text #23

ID : 27
Format : VobSub
Muxing mode : zlib
Codec ID : S_VOBSUB
Codec ID/Info : Picture based subtitle format used on DVDs
Duration : 1 h 48 min
Bit rate : 16.5 kb/s
Count of elements : 2254
Stream size : 12.8 MiB (0%)
Title : Commentary 1
Language : Italian
Default : No
Forced : No

Text #24

ID : 28
Format : VobSub
Muxing mode : zlib
Codec ID : S_VOBSUB
Codec ID/Info : Picture based subtitle format used on DVDs
Duration : 1 h 48 min
Bit rate : 16.4 kb/s
Count of elements : 1923
Stream size : 12.7 MiB (0%)
Title : Commentary 2
Language : Italian
Default : No
Forced : No

Text #25

ID : 29
Format : VobSub
Muxing mode : zlib
Codec ID : S_VOBSUB
Codec ID/Info : Picture based subtitle format used on DVDs
Duration : 1 h 47 min
Bit rate : 9 419 b/s
Count of elements : 1406
Stream size : 7.22 MiB (0%)
Language : Norwegian Bokmal
Default : No
Forced : No

Text #26

ID : 30
Format : VobSub
Muxing mode : zlib
Codec ID : S_VOBSUB
Codec ID/Info : Picture based subtitle format used on DVDs
Duration : 1 h 48 min
Bit rate : 16.8 kb/s
Count of elements : 2248
Stream size : 13.0 MiB (0%)
Title : Commentary 1
Language : Norwegian Bokmal
Default : No
Forced : No

Text #27

ID : 31
Format : VobSub
Muxing mode : zlib
Codec ID : S_VOBSUB
Codec ID/Info : Picture based subtitle format used on DVDs
Duration : 1 h 48 min
Bit rate : 18.2 kb/s
Count of elements : 1925
Stream size : 14.1 MiB (0%)
Title : Commentary 2
Language : Norwegian Bokmal
Default : No
Forced : No

Text #28

ID : 32
Format : VobSub
Muxing mode : zlib
Codec ID : S_VOBSUB
Codec ID/Info : Picture based subtitle format used on DVDs
Duration : 1 h 47 min
Bit rate : 8 860 b/s
Count of elements : 1387
Stream size : 6.79 MiB (0%)
Language : Spanish
Default : No
Forced : No

Text #29

ID : 33
Format : VobSub
Muxing mode : zlib
Codec ID : S_VOBSUB
Codec ID/Info : Picture based subtitle format used on DVDs
Duration : 1 h 48 min
Bit rate : 16.8 kb/s
Count of elements : 2256
Stream size : 13.0 MiB (0%)
Title : Commentary 1
Language : Spanish
Default : No
Forced : No

Text #30

ID : 34
Format : VobSub
Muxing mode : zlib
Codec ID : S_VOBSUB
Codec ID/Info : Picture based subtitle format used on DVDs
Duration : 1 h 48 min
Bit rate : 17.1 kb/s
Count of elements : 1924
Stream size : 13.2 MiB (0%)
Title : Commentary 2
Language : Spanish
Default : No
Forced : No

Text #31

ID : 35
Format : VobSub
Muxing mode : zlib
Codec ID : S_VOBSUB
Codec ID/Info : Picture based subtitle format used on DVDs
Duration : 1 h 47 min
Bit rate : 9 129 b/s
Count of elements : 1401
Stream size : 7.00 MiB (0%)
Language : Swedish
Default : No
Forced : No

Text #32

ID : 36
Format : VobSub
Muxing mode : zlib
Codec ID : S_VOBSUB
Codec ID/Info : Picture based subtitle format used on DVDs
Duration : 1 h 48 min
Bit rate : 17.9 kb/s
Count of elements : 2252
Stream size : 13.8 MiB (0%)
Title : Commentary 1
Language : Swedish
Default : No
Forced : No

Text #33

ID : 37
Format : VobSub
Muxing mode : zlib
Codec ID : S_VOBSUB
Codec ID/Info : Picture based subtitle format used on DVDs
Duration : 1 h 48 min
Bit rate : 18.4 kb/s
Count of elements : 1924
Stream size : 14.2 MiB (0%)
Title : Commentary 2
Language : Swedish
Default : No
Forced : No

Menu

00:00:00.000 : en:Chapter 01
00:03:04.726 : en:Chapter 02
00:05:53.019 : en:Chapter 03
00:09:30.570 : en:Chapter 04
00:13:19.089 : en:Chapter 05
00:16:48.716 : en:Chapter 06
00:20:12.294 : en:Chapter 07
00:22:06.408 : en:Chapter 08
00:27:09.628 : en:Chapter 09
00:31:58.958 : en:Chapter 10
00:36:51.709 : en:Chapter 11
00:41:06.088 : en:Chapter 12
00:44:45.474 : en:Chapter 13
00:46:56.605 : en:Chapter 14
00:50:10.799 : en:Chapter 15
00:53:18.028 : en:Chapter 16
00:55:32.662 : en:Chapter 17
00:59:07.752 : en:Chapter 18
01:03:05.072 : en:Chapter 19
01:07:06.439 : en:Chapter 20
01:09:15.442 : en:Chapter 21
01:12:29.720 : en:Chapter 22
01:16:46.059 : en:Chapter 23
01:20:43.713 : en:Chapter 24
01:25:53.064 : en:Chapter 25
01:31:03.791 : en:Chapter 26
01:34:46.972 : en:Chapter 27
01:39:52.736 : en:Chapter 28