General

Unique ID : 227616846711369582054950688799535541990 (0xAB3D68FBD8334B3297FE0337741A2EE6)
Complete name : /movies/d/Deadpool_2016_10bit_2160p_x265_BluRay_UHD_Joy_30NAMA.mkv
Format : Matroska
Format version : Version 4
File size : 5.05 GiB
Duration : 1 h 48 min
Overall bit rate : 6 647 kb/s
Movie name : Deadpool 2016 VFQ 2160p UHD 4K AC3 x264-SubZero
Encoded date : UTC 2016-05-25 22:24:21
Writing application : mkvmerge v8.5.2 ('Crosses') 64bit
Writing library : libebml v1.3.3 + libmatroska v1.4.4
Cover : Yes
Attachments : cover.jpg

Video

ID : 1
Format : HEVC
Format/Info : High Efficiency Video Coding
Format profile : Main 10@L5@Main
Codec ID : V_MPEGH/ISO/HEVC
Duration : 1 h 48 min
Bit rate : 5 932 kb/s
Width : 3 840 pixels
Height : 1 600 pixels
Display aspect ratio : 2.40:1
Frame rate mode : Constant
Frame rate : 23.976 (24000/1001) FPS
Color space : YUV
Chroma subsampling : 4:2:0
Bit depth : 10 bits
Bits/(Pixel*Frame) : 0.040
Stream size : 4.48 GiB (89%)
Writing library : x265 1.9+140-34a3d35c5f97:[Windows][GCC 5.3.0][64 bit] 10bit
Encoding settings : wpp / ctu=64 / min-cu-size=8 / max-tu-size=32 / tu-intra-depth=1 / tu-inter-depth=1 / me=1 / subme=2 / merange=57 / no-rect / no-amp / max-merge=2 / temporal-mvp / no-early-skip / rdpenalty=0 / no-tskip / no-tskip-fast / strong-intra-smoothing / no-lossless / no-cu-lossless / no-constrained-intra / no-fast-intra / open-gop / no-temporal-layers / interlace=0 / keyint=250 / min-keyint=23 / scenecut=40 / rc-lookahead=20 / lookahead-slices=8 / bframes=4 / bframe-bias=0 / b-adapt=2 / ref=3 / limit-refs=3 / no-limit-modes / weightp / no-weightb / aq-mode=1 / qg-size=32 / aq-strength=1.00 / cbqpoffs=0 / crqpoffs=0 / rd=3 / psy-rd=2.00 / rdoq-level=0 / psy-rdoq=0.00 / no-rd-refine / signhide / deblock=0:0 / sao / no-sao-non-deblock / b-pyramid / cutree / no-intra-refresh / rc=2 / pass / bitrate=5933 / qcomp=0.60 / qpmin=0 / qpmax=51 / qpstep=4 / cplxblur=20.0 / qblur=0.5 / ipratio=1.40 / pbratio=1.30
Default : Yes
Forced : No

Audio #1

ID : 2
Format : AAC LC
Format/Info : Advanced Audio Codec Low Complexity
Codec ID : A_AAC-2
Duration : 1 h 48 min
Bit rate : 373 kb/s
Channel(s) : 7 channels
Channel(s)_Original : 8 channels
Channel layout : C L R Ls Rs Lb Rb LFE
Sampling rate : 48.0 kHz
Frame rate : 46.875 FPS (1024 SPF)
Compression mode : Lossy
Delay relative to video : 9 ms
Stream size : 289 MiB (6%)
Title : English 7.1
Language : English
Default : Yes
Forced : No

Audio #2

ID : 3
Format : AAC LC SBR
Format/Info : Advanced Audio Codec Low Complexity with Spectral Band Replication
Commercial name : HE-AAC
Format settings : Explicit
Codec ID : A_AAC-2
Duration : 1 h 48 min
Bit rate : 80.5 kb/s
Channel(s) : 2 channels
Channel layout : L R
Sampling rate : 48.0 kHz
Frame rate : 23.438 FPS (2048 SPF)
Compression mode : Lossy
Delay relative to video : 31 ms
Stream size : 62.2 MiB (1%)
Title : French 2ch
Language : French
Default : No
Forced : No

Audio #3

ID : 4
Format : AAC LC SBR
Format/Info : Advanced Audio Codec Low Complexity with Spectral Band Replication
Commercial name : HE-AAC
Format settings : Explicit
Codec ID : A_AAC-2
Duration : 1 h 48 min
Bit rate : 80.8 kb/s
Channel(s) : 2 channels
Channel layout : L R
Sampling rate : 48.0 kHz
Frame rate : 23.438 FPS (2048 SPF)
Compression mode : Lossy
Delay relative to video : 31 ms
Stream size : 62.5 MiB (1%)
Title : Spanish 2ch
Language : Spanish
Default : No
Forced : No

Audio #4

ID : 5
Format : AAC LC SBR
Format/Info : Advanced Audio Codec Low Complexity with Spectral Band Replication
Commercial name : HE-AAC
Format settings : Explicit
Codec ID : A_AAC-2
Duration : 1 h 48 min
Bit rate : 50.8 kb/s
Channel(s) : 2 channels
Channel layout : L R
Sampling rate : 48.0 kHz
Frame rate : 23.438 FPS (2048 SPF)
Compression mode : Lossy
Delay relative to video : 31 ms
Stream size : 39.3 MiB (1%)
Title : Commentary w Ryan Renolds
Language : English
Default : No
Forced : No

Audio #5

ID : 6
Format : AAC LC SBR
Format/Info : Advanced Audio Codec Low Complexity with Spectral Band Replication
Commercial name : HE-AAC
Format settings : Explicit
Codec ID : A_AAC-2
Duration : 1 h 48 min
Bit rate : 48.0 kb/s
Channel(s) : 2 channels
Channel layout : L R
Sampling rate : 48.0 kHz
Frame rate : 23.438 FPS (2048 SPF)
Compression mode : Lossy
Delay relative to video : 31 ms
Stream size : 38.4 MiB (1%)
Title : Commentary w Tim Miller
Language : English
Default : No
Forced : No

Text #1

ID : 7
Format : VobSub
Muxing mode : zlib
Codec ID : S_VOBSUB
Codec ID/Info : Picture based subtitle format used on DVDs
Duration : 1 h 48 min
Bit rate : 15.4 kb/s
Count of elements : 2421
Stream size : 11.9 MiB (0%)
Title : Commentary 1
Language : English
Default : No
Forced : No

Text #2

ID : 8
Format : VobSub
Muxing mode : zlib
Codec ID : S_VOBSUB
Codec ID/Info : Picture based subtitle format used on DVDs
Duration : 1 h 48 min
Bit rate : 11.6 kb/s
Count of elements : 2249
Stream size : 8.95 MiB (0%)
Title : Commentary 1
Language : Spanish
Default : No
Forced : No

Text #3

ID : 9
Format : VobSub
Muxing mode : zlib
Codec ID : S_VOBSUB
Codec ID/Info : Picture based subtitle format used on DVDs
Duration : 1 h 48 min
Bit rate : 11.7 kb/s
Count of elements : 2255
Stream size : 9.06 MiB (0%)
Title : Commentary 1
Language : French
Default : No
Forced : No

Text #4

ID : 10
Format : VobSub
Muxing mode : zlib
Codec ID : S_VOBSUB
Codec ID/Info : Picture based subtitle format used on DVDs
Duration : 1 h 47 min
Bit rate : 13.5 kb/s
Count of elements : 1994
Stream size : 10.4 MiB (0%)
Title : Commentary 2
Language : English
Default : No
Forced : No

Text #5

ID : 11
Format : VobSub
Muxing mode : zlib
Codec ID : S_VOBSUB
Codec ID/Info : Picture based subtitle format used on DVDs
Duration : 1 h 48 min
Bit rate : 11.8 kb/s
Count of elements : 1922
Stream size : 9.14 MiB (0%)
Title : Commentary 2
Language : Spanish
Default : No
Forced : No

Text #6

ID : 12
Format : VobSub
Muxing mode : zlib
Codec ID : S_VOBSUB
Codec ID/Info : Picture based subtitle format used on DVDs
Duration : 1 h 48 min
Bit rate : 12.5 kb/s
Count of elements : 1923
Stream size : 9.63 MiB (0%)
Title : Commentary 2
Language : French
Default : No
Forced : No

Text #7

ID : 13
Format : UTF-8
Codec ID : S_TEXT/UTF8
Codec ID/Info : UTF-8 Plain Text
Duration : 1 h 44 min
Bit rate : 58 b/s
Count of elements : 1572
Stream size : 44.9 KiB (0%)
Language : English
Default : No
Forced : No

Text #8

ID : 14
Format : UTF-8
Codec ID : S_TEXT/UTF8
Codec ID/Info : UTF-8 Plain Text
Duration : 1 h 48 min
Bit rate : 73 b/s
Count of elements : 783
Stream size : 58.7 KiB (0%)
Language : Arabic
Default : No
Forced : No

Text #9

ID : 15
Format : UTF-8
Codec ID : S_TEXT/UTF8
Codec ID/Info : UTF-8 Plain Text
Duration : 1 h 47 min
Bit rate : 45 b/s
Count of elements : 1509
Stream size : 35.5 KiB (0%)
Language : Chinese
Default : No
Forced : No

Text #10

ID : 16
Format : UTF-8
Codec ID : S_TEXT/UTF8
Codec ID/Info : UTF-8 Plain Text
Duration : 1 h 47 min
Bit rate : 52 b/s
Count of elements : 1191
Stream size : 41.1 KiB (0%)
Language : Danish
Default : No
Forced : No

Text #11

ID : 17
Format : UTF-8
Codec ID : S_TEXT/UTF8
Codec ID/Info : UTF-8 Plain Text
Duration : 1 h 47 min
Bit rate : 53 b/s
Count of elements : 893
Stream size : 41.7 KiB (0%)
Language : Dutch
Default : No
Forced : No

Text #12

ID : 18
Format : UTF-8
Codec ID : S_TEXT/UTF8
Codec ID/Info : UTF-8 Plain Text
Duration : 1 h 48 min
Bit rate : 96 b/s
Count of elements : 1445
Stream size : 76.4 KiB (0%)
Language : Persian
Default : No
Forced : No

Text #13

ID : 19
Format : UTF-8
Codec ID : S_TEXT/UTF8
Codec ID/Info : UTF-8 Plain Text
Duration : 1 h 47 min
Bit rate : 46 b/s
Count of elements : 1400
Stream size : 36.4 KiB (0%)
Language : Finnish
Default : No
Forced : No

Text #14

ID : 20
Format : UTF-8
Codec ID : S_TEXT/UTF8
Codec ID/Info : UTF-8 Plain Text
Duration : 1 h 47 min
Bit rate : 57 b/s
Count of elements : 1417
Stream size : 45.3 KiB (0%)
Language : French
Default : No
Forced : No

Text #15

ID : 21
Format : UTF-8
Codec ID : S_TEXT/UTF8
Codec ID/Info : UTF-8 Plain Text
Duration : 1 h 47 min
Bit rate : 52 b/s
Count of elements : 1375
Stream size : 41.2 KiB (0%)
Language : German
Default : No
Forced : No

Text #16

ID : 22
Format : UTF-8
Codec ID : S_TEXT/UTF8
Codec ID/Info : UTF-8 Plain Text
Duration : 1 h 47 min
Bit rate : 108 b/s
Count of elements : 1168
Stream size : 85.6 KiB (0%)
Language : Greek
Default : No
Forced : No

Text #17

ID : 23
Format : UTF-8
Codec ID : S_TEXT/UTF8
Codec ID/Info : UTF-8 Plain Text
Duration : 1 h 47 min
Bit rate : 87 b/s
Count of elements : 1408
Stream size : 69.1 KiB (0%)
Language : Hebrew
Default : No
Forced : No

Text #18

ID : 24
Format : UTF-8
Codec ID : S_TEXT/UTF8
Codec ID/Info : UTF-8 Plain Text
Duration : 1 h 47 min
Bit rate : 140 b/s
Count of elements : 1419
Stream size : 111 KiB (0%)
Language : Hindi
Default : No
Forced : No

Text #19

ID : 25
Format : UTF-8
Codec ID : S_TEXT/UTF8
Codec ID/Info : UTF-8 Plain Text
Duration : 1 h 47 min
Bit rate : 53 b/s
Count of elements : 1406
Stream size : 42.2 KiB (0%)
Language : Norwegian
Default : No
Forced : No

Text #20

ID : 26
Format : UTF-8
Codec ID : S_TEXT/UTF8
Codec ID/Info : UTF-8 Plain Text
Duration : 1 h 47 min
Bit rate : 55 b/s
Count of elements : 1364
Stream size : 43.9 KiB (0%)
Language : Spanish
Default : No
Forced : No

Text #21

ID : 27
Format : UTF-8
Codec ID : S_TEXT/UTF8
Codec ID/Info : UTF-8 Plain Text
Duration : 1 h 47 min
Bit rate : 120 b/s
Count of elements : 1417
Stream size : 95.5 KiB (0%)
Language : Thai
Default : No
Forced : No

Text #22

ID : 28
Format : UTF-8
Codec ID : S_TEXT/UTF8
Codec ID/Info : UTF-8 Plain Text
Duration : 1 h 47 min
Bit rate : 58 b/s
Count of elements : 1411
Stream size : 46.1 KiB (0%)
Language : Turkish
Default : No
Forced : No

Text #23

ID : 29
Format : UTF-8
Codec ID : S_TEXT/UTF8
Codec ID/Info : UTF-8 Plain Text
Duration : 1 h 48 min
Bit rate : 73 b/s
Count of elements : 1398
Stream size : 58.6 KiB (0%)
Language : Vietnamese
Default : No
Forced : No

Text #24

ID : 30
Format : PGS
Muxing mode : zlib
Codec ID : S_HDMV/PGS
Codec ID/Info : Picture based subtitle format used on BDs/HD-DVDs
Duration : 1 h 47 min
Bit rate : 13.9 kb/s
Count of elements : 3704
Stream size : 10.7 MiB (0%)
Title : English-PGS
Language : English
Default : No
Forced : No

Text #25

ID : 31
Format : PGS
Muxing mode : zlib
Codec ID : S_HDMV/PGS
Codec ID/Info : Picture based subtitle format used on BDs/HD-DVDs
Duration : 1 s 919 ms
Bit rate : 12.0 kb/s
Count of elements : 2
Stream size : 2.81 KiB (0%)
Title : English-FORCED-PGS
Language : English
Default : No
Forced : Yes

Text #26

ID : 32
Format : PGS
Muxing mode : zlib
Codec ID : S_HDMV/PGS
Codec ID/Info : Picture based subtitle format used on BDs/HD-DVDs
Duration : 1 h 47 min
Bit rate : 10.5 kb/s
Count of elements : 2742
Stream size : 8.03 MiB (0%)
Title : Spanish-PGS
Language : Spanish
Default : No
Forced : No

Text #27

ID : 33
Format : PGS
Muxing mode : zlib
Codec ID : S_HDMV/PGS
Codec ID/Info : Picture based subtitle format used on BDs/HD-DVDs
Duration : 1 h 47 min
Bit rate : 155 b/s
Count of elements : 38
Stream size : 122 KiB (0%)
Title : Spanish-FORCED-PGS
Language : Spanish
Default : No
Forced : Yes

Text #28

ID : 34
Format : PGS
Muxing mode : zlib
Codec ID : S_HDMV/PGS
Codec ID/Info : Picture based subtitle format used on BDs/HD-DVDs
Duration : 1 h 47 min
Bit rate : 10.6 kb/s
Count of elements : 2834
Stream size : 8.09 MiB (0%)
Title : French-PGS
Language : French
Default : No
Forced : No

Text #29

ID : 35
Format : PGS
Muxing mode : zlib
Codec ID : S_HDMV/PGS
Codec ID/Info : Picture based subtitle format used on BDs/HD-DVDs
Duration : 1 h 47 min
Bit rate : 126 b/s
Count of elements : 36
Stream size : 99.2 KiB (0%)
Title : French-FORCED-PGS
Language : French
Default : No
Forced : Yes