General

Unique ID : 88147068920258540127760335924348688251 (0x425082094BD56830AE3EFAD54EE1977B)
Complete name : /movies/d/Deadpool_2016_1080p_BluRay_REMUX_KRaLiMaRKo_30NAMA.mkv
Format : Matroska
Format version : Version 4
File size : 21.6 GiB
Duration : 1 h 48 min
Overall bit rate mode : Variable
Overall bit rate : 28.7 Mb/s
Movie name : Deadpool 2016 1080p Blu-ray Remux AVC DTS-HD MA 7.1 - KRaLiMaRKo
Encoded date : UTC 2016-04-27 08:22:09
Writing application : mkvmerge v9.0.1 ('Obstacles') 64bit
Writing library : libebml v1.3.3 + libmatroska v1.4.4

Video

ID : 1
Format : AVC
Format/Info : Advanced Video Codec
Format profile : High@L4.1
Format settings : CABAC / 4 Ref Frames
Format settings, CABAC : Yes
Format settings, ReFrames : 4 frames
Codec ID : V_MPEG4/ISO/AVC
Duration : 1 h 48 min
Bit rate mode : Variable
Bit rate : 23.7 Mb/s
Maximum bit rate : 33.0 Mb/s
Width : 1 920 pixels
Height : 1 080 pixels
Display aspect ratio : 16:9
Frame rate mode : Constant
Frame rate : 23.976 (24000/1001) FPS
Color space : YUV
Chroma subsampling : 4:2:0
Bit depth : 8 bits
Scan type : Progressive
Bits/(Pixel*Frame) : 0.476
Stream size : 17.9 GiB (83%)
Language : English
Default : Yes
Forced : No

Audio

ID : 2
Format : DTS ES XLL
Format/Info : Digital Theater Systems
Commercial name : DTS-HD Master Audio
Codec ID : A_DTS
Duration : 1 h 48 min
Bit rate mode : Variable
Bit rate : 4 892 kb/s
Channel(s) : 8 channels
Channel layout : C L R Ls Rs LFE Lb Rb
Sampling rate : 48.0 kHz
Frame rate : 93.750 FPS (512 SPF)
Bit depth : 24 bits
Compression mode : Lossless
Stream size : 3.69 GiB (17%)
Language : English
Default : Yes
Forced : No

Text #1

ID : 3
Format : PGS
Codec ID : S_HDMV/PGS
Codec ID/Info : Picture based subtitle format used on BDs/HD-DVDs
Duration : 1 s 918 ms
Bit rate : 27.9 kb/s
Count of elements : 2
Stream size : 6.53 KiB (0%)
Title : English (Forced)
Language : English
Default : No
Forced : No

Text #2

ID : 4
Format : PGS
Codec ID : S_HDMV/PGS
Codec ID/Info : Picture based subtitle format used on BDs/HD-DVDs
Duration : 1 h 47 min
Bit rate : 44.0 kb/s
Count of elements : 3704
Stream size : 33.9 MiB (0%)
Title : English (SDH)
Language : English
Default : No
Forced : No

Text #3

ID : 5
Format : PGS
Codec ID : S_HDMV/PGS
Codec ID/Info : Picture based subtitle format used on BDs/HD-DVDs
Duration : 1 h 47 min
Bit rate : 35.2 kb/s
Count of elements : 2834
Stream size : 27.0 MiB (0%)
Language : French
Default : No
Forced : No

Text #4

ID : 6
Format : PGS
Codec ID : S_HDMV/PGS
Codec ID/Info : Picture based subtitle format used on BDs/HD-DVDs
Duration : 1 h 47 min
Bit rate : 34.9 kb/s
Count of elements : 2742
Stream size : 26.7 MiB (0%)
Title : Spanish (Latin American)
Language : Spanish
Default : No
Forced : No

Menu

00:00:00.000 : en:00:00:00.000
00:03:04.726 : en:00:03:04.726
00:05:53.019 : en:00:05:53.019
00:09:30.820 : en:00:09:30.820
00:13:19.090 : en:00:13:19.090
00:16:48.716 : en:00:16:48.716
00:20:12.545 : en:00:20:12.545
00:22:06.408 : en:00:22:06.408
00:27:09.628 : en:00:27:09.628
00:31:58.959 : en:00:31:58.959
00:36:51.709 : en:00:36:51.709
00:41:06.172 : en:00:41:06.172
00:44:45.766 : en:00:44:45.766
00:46:56.605 : en:00:46:56.605
00:50:10.966 : en:00:50:10.966
00:53:18.028 : en:00:53:18.028
00:55:33.038 : en:00:55:33.038
00:59:07.753 : en:00:59:07.753
01:03:05.240 : en:01:03:05.240
01:07:06.439 : en:01:07:06.439
01:09:15.568 : en:01:09:15.568
01:12:29.720 : en:01:12:29.720
01:16:46.393 : en:01:16:46.393
01:20:43.714 : en:01:20:43.714
01:25:53.398 : en:01:25:53.398
01:31:03.792 : en:01:31:03.792
01:34:46.973 : en:01:34:46.973
01:39:52.737 : en:01:39:52.737